Скачать через торрент По расчету The Arrangement Фильм бесплатно в хорошем качестве torrent

Скачивайте на UnionPeer.org фильмы через торрент без регистрации. Новинки кино в хорошем качестве через торрент. На UnionPeer.org можно скачать через торрент фильмы 2014 и 2015 годов. Самые новые фильмы.

Скачать торрент По расчету The Arrangement бесплатно через .torrent фильм мультфильм сериал

Если у вас наблюдаются проблемы со скриншотами, переходом по ссылками, скачиванием торрентов - проблемы в блокировщике рекламы AdBlock. #хорошегоДня!


Статистика раздачи
Размер:  574 MB   |    Зарегистрирован:  3 месяца 1 день   |    .torrent скачан:  19 раз   |   
Раздают:  1  
   
Загрузка...
 
Автор Сообщение

Galfimbul

avatar Galfimbul


По расчету / The Arrangement

Год выпуска: 2017
Страна: США
Жанр: Триллер
Продолжительность: 1 х ~ 00:48:00

Перевод: Любительский (двухголосый закадровый) RusFilm

Режиссёр: Джонас Пейт, Элизабет Аллен, Кэрол Бенкер

В ролях: Кристин Евангелиста, Кайл Той, Кортни Пейдж, Джош Хендерсон, Майкл Вартан, Карра Паттерсон, Отем Ризер, Кайл Райдаут, Лекса Дойг, Кэтрин Изабель

Описание: История юной телевизионной актрисы Меган Моррисон. Девушка верит, что в ее жизни начинается светлая полоса, когда на горизонте появляется возможность получить роль в фильме с Кайлом Вестом. Прослушивание выливается в первое свидание, Меган чувствует, что молодой актер, выступающий с ней в дуэте — именно тот, кого она всегда искала. Но затем актрисе предлагают брачный контракт с самой большой звездой Голливуда, который устроит карьеру Меган. Контракт весьма странный, однако Меган настолько воодушевлена, что забывает читать между строк…

Роли озвучивали: Василий Чупров и Анастасия Гайдаржи
Монтаж и сведение звука: Руслан Раскопин

Ссылка на предыдущие и альтернативные раздачи: ...The%20Arrangement

Качество: HDTVRip
Формат: AVI
Видео: 720x400 (1.80:1), 25 fps, XviD build 63 ~1488 kbps avg, 0.21 bit/pixel
Аудио: 48 kHz, AC3 Dolby Digital, 2/0 (L,R) ch, ~192.00 kbps avg
Субтитры: Отсутствуют

Реклама:
Интро заставка 7 сек.
Общее
Полное имя : D:\The Arrangement.s01.400p.RusFilm\The Arrangement.s01e01.400p.RusFilm.avi
Формат : AVI
Формат/Информация : Audio Video Interleave
Размер файла : 574 Мбайт
Продолжительность : 47 м.
Общий поток : 1691 Кбит/сек
Программа кодирования : Lavf55.19.104

Видео
Идентификатор : 0
Формат : xvid
Идентификатор кодека : xvid
Продолжительность : 47 м.
Битрейт : 1488 Кбит/сек
Ширина : 720 пикселей
Высота : 400 пикселей
Соотношение сторон : 16:9
Частота кадров : 25,000 кадров/сек
Бит/(Пиксели*Кадры) : 0.207
Размер потока : 505 Мбайт (88%)

Аудио
Идентификатор : 1
Формат : AC-3
Формат/Информация : Audio Coding 3
Расширение режима : CM (complete main)
Параметр Endianness формата : Big
Идентификатор кодека : 2000
Продолжительность : 47 м.
Вид битрейта : Постоянный
Битрейт : 192 Кбит/сек
Каналы : 2 канала
Расположение каналов : Front: L R
Частота : 48,0 КГц
Битовая глубина : 16 бит
Метод сжатия : С потерями
Размер потока : 65,1 Мбайт (11%)
Выравнивание : Соединение по промежуткам
Продолжительность промежутка : 32 мс. (0,80 видеокадр)
Внимание! Раздача ведётся путём добавления новых серий; при каждом добавлении создаётся новый торрент. Чтобы начать докачку новой серии, пользователям необходимо сделать следующее:
(1) остановить скачивание,
(2) удалить старый торрент у себя из клиента (старые серии удалять не надо),
(3) скачать новый торрент и запустить его у себя в клиенте вместо старого, при этом указать клиенту путь в старую папку куда и должно происходить скачивание новых серий.
Ваш клиент при этом должен произвести хеширование (проверку) старой папки (если не производит сам - помогите ему сделать это), и будет докачивать только те серии которых у вас ещё нет. Старые серии при этом не удаляются, а продолжают раздаваться!
Eсли вы уже удалили старые серии, то предотвратить повторную закачку старых серий можно, отжав галочку в соответствующих местах при запуске нового торрента. По возможности, желательно не удалять старые серии как можно дольше чтобы релизёр не столько продолжал раздавать старые серии, а смог сконцентрироваться на новых.


Трекер:  [ 21-Апр-2017 16:30 ]

  

Скачать .torrent

Размер .torrent файла 12 KB


Размер: 574 MB
Хэш (hash) релиза: 5fab9d4429a3159314821cabf019b0c63a17fcb1
Подписка на обновления:

Еще никто не оставлял запись к записи скачать торрент По расчету The Arrangement . Будь первым!

!Обратная связь