Скачать через торрент Горничная Серии: 1-8 из 8 Фильм бесплатно в хорошем качестве torrent

Скачивайте на UnionPeer.org фильмы через торрент без регистрации. Новинки кино в хорошем качестве через торрент. На UnionPeer.org можно скачать через торрент фильмы 2014 и 2015 годов. Самые новые фильмы.

Скачать торрент Горничная Серии: 1-8 из 8 бесплатно через .torrent фильм мультфильм сериал

Статистика раздачи
Размер:  4.68 GB   |    Зарегистрирован:  2 дня 6 часов   |    .torrent скачан:  54 раза   |   
Раздают:  1  
   
 
Автор Сообщение

Galfimbul

avatar Galfimbul


Горничная

Год выпуска: 2017
Производство: Star Media
Жанр: Драма, мелодрама
Продолжительность: 00:50:00
Субтитры: нет

Режиссёр: Олег Масленников

В ролях: Екатерина Стулова, Максим Радугин, Олег Савкин, Никита Пархоменко, Юлия Гершаник, Сергей Солодов, Анастасия Чепелюк, Фатима Горбенко.

Описание: В основе сюжета лежит история Татьяны Ларионовой. Она – хозяйка преуспевающего семейного отеля, счастливая жена и любящая мама. Все идет своим чередом, но ровно до тех пор, пока в город не приезжает владелец крупной гостиничной сети, Роман Дерябин. Он заинтересован в том, чтобы приобрести землю, на которой находится отель Татьяны. А она, разумеется, отказывает ему в продаже отеля, после чего у неё и её семьи начинаются крупные неприятности...
/ Сэмпл
Релиз от:
Качество: WEBRip
Формат: AVI
Видео кодек: XviD
Аудио кодек: AC3
Видео: 720x400 (16:9), 25.000 fps, XviD build 73, 1 444 Kbps, 0.20 bits/pixel
Аудио: 48 kHz, AC3 Dolby Digital, 2 ch, 192 Kbps

Реклама: Нет
General
Complete name : Downloads\Gornichnaja.2017.WEB-DLRip.Files-x
Format : AVI
Format/Info : Audio Video Interleave
File size : 599 MiB
Duration : 50mn 53s
Overall bit rate : 1 645 Kbps
Writing application : VirtualDubMod 1.5.10.3 | www.virtualdub-fr.org || (build 2550/release)
Writing library : VirtualDubMod build 2550/release
Video #0
ID : 0
Format : MPEG-4 Visual
Format profile : Advanced Simple@L5
Format settings, BVOP : 1
Format settings, QPel : No
Format settings, GMC : No warppoints
Format settings, Matrix : Custom
Codec ID : XVID
Codec ID/Hint : XviD
Duration : 50mn 53s
Bit rate : 1 444 Kbps
Width : 720 pixels
Height : 400 pixels
Display aspect ratio : 16:9
Frame rate : 25.000 fps
Color space : YUV
Chroma subsampling : 4:2:0
Bit depth : 8 bits
Scan type : Progressive
Compression mode : Lossy
Bits/(Pixel*Frame) : 0.201
Stream size : 525 MiB (88%)
Writing library : XviD 73
Audio #1
ID : 1
Format : AC-3
Format/Info : Audio Coding 3
Mode extension : CM (complete main)
Format settings, Endianness : Big
Codec ID : 2000
Duration : 50mn 53s
Bit rate mode : Constant
Bit rate : 192 Kbps
Channel(s) : 2 channels
Channel positions : Front: L R
Sampling rate : 48.0 KHz
Bit depth : 16 bits
Compression mode : Lossy
Stream size : 69.9 MiB (12%)
Alignment : Split accross interleaves
Interleave, duration : 40 ms (1.00 video frame)
Interleave, preload duration : 500 ms


Трекер:  [ 21-Апр-2017 16:00 ]

  

Скачать .torrent

Размер .torrent файла 24 KB


Размер: 4.68 GB
Хэш (hash) релиза: 56daa8ceb9be99841f0ce2561471e8eaf3f07b51
Подписка на обновления:

Еще никто не оставлял запись к записи скачать торрент Горничная Серии: 1-8 из 8 . Будь первым!

!Обратная связь