Скачать через торрент Пожар в доме Trash Fire Фильм бесплатно в хорошем качестве torrent

Скачивайте на UnionPeer.org фильмы через торрент без регистрации. Новинки кино в хорошем качестве через торрент. На UnionPeer.org можно скачать через торрент фильмы 2014 и 2015 годов. Самые новые фильмы.

Скачать торрент Пожар в доме Trash Fire бесплатно через .torrent фильм мультфильм сериал

Если у вас наблюдаются проблемы со скриншотами, переходом по ссылками, скачиванием торрентов - проблемы в блокировщике рекламы AdBlock. #хорошегоДня!


Статистика раздачи
Размер:  3.39 GB   |    Зарегистрирован:  3 месяца 2 дня   |    .torrent скачан:  60 раз   |   
Раздают:  1  
   
Загрузка...
 
Автор Сообщение

Galfimbul

avatar Galfimbul


Пожар в доме / Пожар на помойке /Trash Fire

Год выхода: 2016
Жанр: ужасы, драма, комедия
Режиссер: Ричард Бейтс мл.
В ролях: Эдриан Гренье, Анджела Тримбур, Финола Флэнаган, АннаЛинн МакКорд, Сэлли Кёркленд, Мэттью Грей Гублер, Эзра Баззингтон, Молли МакКук, Рэй Сантьяго, Майкл Ларен

О фильме:
Оуэн уже много лет не общается со своей семьёй — младшей сестрой и бабушкой. В детстве с ним произошёл ужасный случай, после чего парень старательно пытается забыть прошлое. Но тут его девушка Изабель беременеет, и, возможно, намечается свадьба, поэтому она настаивает на том, чтобы будущий супруг наладил разорванные семейные отношения. Но родственников, как говорится, не выбирают, и некоторые отношения лучше не налаживать.



Страна: США
Студия: Circle of Confusion, Snowfort Pictures
Продолжительность: 01:33:54
Перевод: Любительский одноголосный, закадровый [Хихикающий доктор]

Файл
Кодек: H.264
Качество: WEBRip 1080p
Видео: AVC, 1904x792 (2.40 :1), 23.976 fps ~ 4450 Kbps
Звук:
AC3, 48 KHz 2 ch ~ 192 Kb/s (русский)
AC3, 48 KHz 6 ch ~ 384 Kb/s (английский)
Субтитры: английские
Общее
Уникальный идентификатор : 220790222955942479316459019792564347571 (0xA61AA67251D00D7EA0F2D86B537BE2B3)
Полное имя : Q:TorFTrash.Fire.2016.1080p.mkv
Формат : Matroska
Версия формата : Version 2
Размер файла : 3,39 Гбайт
Продолжительность : 1 ч. 33 м.
Общий поток : 5167 Кбит/сек
Название фильма : Trash.Fire.2016.1080p
Дата кодирования : UTC 2017-04-21 04:30:32
Программа кодирования : mkvmerge v5.4.0 ('Piper') built on Mar 10 2012 13:34:39
Библиотека кодирования : libebml v1.2.3 + libmatroska v1.3.0
Attachment : Yes / Yes / Yes / Yes

Видео
Идентификатор : 1
Формат : AVC
Формат/Информация : Advanced Video Codec
Профиль формата : High@L4.0
Параметр CABAC формата : Да
Параметр ReFrames формата : 5 кадров
Идентификатор кодека : V_MPEG4/ISO/AVC
Продолжительность : 1 ч. 33 м.
Битрейт : 4488 Кбит/сек
Ширина : 1904 пикселя
Высота : 792 пикселя
Соотношение сторон : 2,40:1
Частота кадров : 23,976 кадра/сек
Цветовое пространство : YUV
Субдискретизация насыщенности : 4:2:0
Битовая глубина : 8 бит
Тип развёртки : Прогрессивная
Бит/(Пиксели*Кадры) : 0.124
Размер потока : 2,94 Гбайт (87%)
Заголовок : Trash.Fire.2016
Язык : English
Default : Да
Forced : Нет
Основные цвета : BT.709-5, BT.1361, IEC 61966-2-4, SMPTE RP177
Характеристики трансфера : BT.709-5, BT.1361
Коэффициенты матрицы : BT.709-5, BT.1361, IEC 61966-2-4 709, SMPTE RP177

Аудио #1
Идентификатор : 2
Формат : AC-3
Формат/Информация : Audio Coding 3
Расширение режима : CM (complete main)
Идентификатор кодека : A_AC3
Продолжительность : 1 ч. 33 м.
Вид битрейта : Постоянный
Битрейт : 192 Кбит/сек
Каналы : 2 канала
Расположение каналов : Front: L R
Частота : 48,0 КГц
Битовая глубина : 16 бит
Метод сжатия : С потерями
Размер потока : 129 Мбайт (4%)
Заголовок : xixidok
Язык : Russian
Default : Да
Forced : Нет

Аудио #2
Идентификатор : 3
Формат : AC-3
Формат/Информация : Audio Coding 3
Расширение режима : CM (complete main)
Идентификатор кодека : A_AC3
Продолжительность : 1 ч. 33 м.
Вид битрейта : Постоянный
Битрейт : 384 Кбит/сек
Каналы : 6 каналов
Расположение каналов : Front: L C R, Side: L R, LFE
Частота : 48,0 КГц
Битовая глубина : 16 бит
Метод сжатия : С потерями
Размер потока : 258 Мбайт (7%)
Заголовок : Trash.Fire.2016
Язык : English
Default : Нет
Forced : Нет

Текст
Идентификатор : 4
Формат : UTF-8
Идентификатор кодека : S_TEXT/UTF8
Идентификатор кодека/Информация : UTF-8 Plain Text
Язык : English
Default : Да
Forced : Нет

Меню
00:00:00.000 : en:Opening Sequence
00:06:29.000 : en:What Is That?
00:11:45.000 : en:Unhealthy
00:18:56.000 : en:I'm Not Dead Yet
00:25:38.000 : en:It's Not The Right Time
00:29:55.000 : en:Since The Funeral
00:36:08.000 : en:Where's Pearl?
00:41:51.000 : en:Closer Together
00:48:34.000 : en:Don't Turn Around
00:54:16.000 : en:Stop Fighting
00:59:42.000 : en:God's Work
01:06:06.000 : en:Pretty For You
01:12:13.000 : en:You Wicked Child
01:17:48.000 : en:Forgive Me
01:23:54.000 : en:No More Fighting
01:28:31.000 : en:End Credits
ПРИСУТСТВУЮТ ПЕЛЬМЕНИ ОТ ДОКА

Трекер:  [ 21-Апр-2017 10:30 ]

  

Скачать .torrent

Размер .torrent файла 17 KB


Размер: 3.39 GB
Хэш (hash) релиза: 69931de6438aa386424da140e72fad8706b5b71f
Подписка на обновления:

Торренты, похожие на Пожар в доме Trash Fire скачать торрент

Форум Название Автор Размер S L Добавлен
Зарубежные фильмы 2016-2017 (Новинки зарубежного кино) ·· Пожар в доме / Trash Fire (Ричард Бейтс мл.) [2016, ужасы, мелодрама, комедия, WEBRip] Galfimbul 15044764941.4 GB 0 0 1483566194

00:43

5-Янв-17

Еще никто не оставлял запись к записи скачать торрент Пожар в доме Trash Fire . Будь первым!

!Обратная связь