Скачать через торрент Девочки Girls Фильм бесплатно в хорошем качестве torrent

Скачивайте на UnionPeer.org фильмы через торрент без регистрации. Новинки кино в хорошем качестве через торрент. На UnionPeer.org можно скачать через торрент фильмы 2014 и 2015 годов. Самые новые фильмы.

Скачать торрент Девочки Girls бесплатно через .torrent фильм мультфильм сериал

Если у вас наблюдаются проблемы со скриншотами, переходом по ссылками, скачиванием торрентов - проблемы в блокировщике рекламы AdBlock. #хорошегоДня!


Статистика раздачи
Размер:  6.46 GB   |    Зарегистрирован:  3 месяца   |    .torrent скачан:  19 раз   |   
Раздают:  1  
   
Загрузка...
 
Автор Сообщение

Galfimbul

avatar Galfimbul


Девочки / Girls

Год выпуска: 2017
Страна: США
Жанр: Драма, комедия
Продолжительность: 00:30:00

Перевод: Профессиональный (многоголосый закадровый) Amedia

Режиссёр: Лина Данэм, Джоди Ли Лайпс, Ричард Шепард
В ролях: Лена Данэм, Эллисон Вильямс, Джемима Кирк, Зося Мамет, Адам Драйвер

Описание: Комедия рассказывает о нескольких девушках двадцатилетнего возраста, которым приходится испытывать унижения и лишь изредка знавать вкус победы.

Сэмпл

Качество: WEBRip 720p
Контейнер: MKV
Видео: 1280x720p, 23.976 fps, x264 ~2 572 kbps ~0.117 bit/pixel
Аудио: AC3, 48 kHz, 2 ch, 192 Кбит/с - Rus
Аудио 2: AC3, 48 kHz, 2 ch, 384 Кбит/с - Rus
Субтитры: Отсутствуют
Реклама: Отсутствует
General
Уникальный идентификатор : 220918999389225601986476984652652165401 (0xA633739D6B55948995D1CAA0D66D3919)
Полное имя : Z:\Films\Girls.S06.720p\Girls.S06E01.All.I.Ever.Wanted.720p.HDTV.mkv
Формат : Matroska
Версия формата : Version 4 / Version 2
Размер файла : 936 MiB
Продолжительность : 41 min 33 s
Общий поток : 3 149 kb/s
Дата кодирования : UTC 2017-04-17 16:22:26
Программа кодирования : mkvmerge v9.9.0 ('Pick Up') 64bit
Библиотека кодирования : libebml v1.3.4 + libmatroska v1.4.5

Video
Идентификатор : 1
Формат : AVC
Формат/Информация : Advanced Video Codec
Профиль формата : High@L4.1
Параметр CABAC формата : Yes
Параметр ReFrames формата : 5 frames
Идентификатор кодека : V_MPEG4/ISO/AVC
Продолжительность : 41 min 33 s
Битрейт : 2 572 kb/s
Ширина : 1 280 pixels
Высота : 718 pixels
Соотношение сторон : 16:9
Режим частоты кадров : Constant
Частота кадров : 23.976 (24000/1001) FPS
Цветовое пространство : YUV
Субдискретизация насыщенности : 4:2:0
Битовая глубина : 8 bits
Тип развёртки : Progressive
Бит/(Пиксели*Кадры) : 0.117
Размер потока : 765 MiB (82%)
Библиотека кодирования : x264 core 148 r2744 b97ae06
Настройки программы : cabac=1 / ref=5 / deblock=1:0:0 / analyse=0x3:0x113 / me=hex / subme=8 / psy=1 / psy_rd=1.00:0.00 / mixed_ref=1 / me_range=16 / chroma_me=1 / trellis=2 / 8x8dct=1 / cqm=0 / deadzone=21,11 / fast_pskip=1 / chroma_qp_offset=-2 / threads=22 / lookahead_threads=3 / sliced_threads=0 / nr=0 / decimate=1 / interlaced=0 / bluray_compat=0 / constrained_intra=0 / bframes=3 / b_pyramid=2 / b_adapt=1 / b_bias=0 / direct=3 / weightb=1 / open_gop=0 / weightp=2 / keyint=250 / keyint_min=23 / scenecut=40 / intra_refresh=0 / rc_lookahead=50 / rc=crf / mbtree=1 / crf=18.0 / qcomp=0.60 / qpmin=0 / qpmax=69 / qpstep=4 / ip_ratio=1.40 / aq=1:1.00
Default : Yes
Forced : No
Цветовой диапазон : Limited
Коэффициенты матрицы : BT.709

Audio #1
Идентификатор : 2
Формат : AC-3
Формат/Информация : Audio Coding 3
Параметр Endianness формата : Big
Идентификатор кодека : A_AC3
Продолжительность : 41 min 31 s
Вид битрейта : Constant
Битрейт : 192 kb/s
Каналы : 2 channels
Расположение каналов : Front: L R
Частота : 48.0 kHz
Частота кадров : 31.250 FPS (1536 spf)
Битовая глубина : 16 bits
Метод сжатия : Lossy
Размер потока : 57.0 MiB (6%)
Язык : Russian
ServiceKind/String : Complete Main
Default : No
Forced : Yes

Audio #2
Идентификатор : 3
Формат : AC-3
Формат/Информация : Audio Coding 3
Параметр Endianness формата : Big
Идентификатор кодека : A_AC3
Продолжительность : 41 min 33 s
Вид битрейта : Constant
Битрейт : 384 kb/s
Каналы : 6 channels
Расположение каналов : Front: L C R, Side: L R, LFE
Частота : 48.0 kHz
Частота кадров : 31.250 FPS (1536 spf)
Битовая глубина : 16 bits
Метод сжатия : Lossy
Размер потока : 114 MiB (12%)
Язык : English
ServiceKind/String : Complete Main
Default : Yes
Forced : No


Трекер:  [ 21-Апр-2017 10:00 ]

  

Скачать .torrent

Размер .torrent файла 17 KB


Размер: 6.46 GB
Хэш (hash) релиза: 0a50f3bfc73da5667274e2d1cb353c92db468964
Подписка на обновления:

Еще никто не оставлял запись к записи скачать торрент Девочки Girls . Будь первым!

!Обратная связь