Скачать через торрент Защитники Фильм бесплатно в хорошем качестве torrent

Скачивайте на UnionPeer.org фильмы через торрент без регистрации. Новинки кино в хорошем качестве через торрент. На UnionPeer.org можно скачать через торрент фильмы 2014 и 2015 годов. Самые новые фильмы.

Скачать торрент Защитники бесплатно через .torrent фильм мультфильм сериал

Статистика раздачи
Размер:  1.46 GB   |    Зарегистрирован:  1 месяц 5 дней   |    .torrent скачан:  449 раз   |   
Раздают:  9  
   
 
Автор Сообщение

Galfimbul

avatar Galfimbul


«Отряд советских супергероев»

Защитники

Год выхода: 2016
Жанр: Фантастика, фэнтези, боевик, приключения
Режиссер: Сарик Андреасян
В ролях: Антон Пампушный, Санжар Мади, Себастьян Сисак, Алина Кизиярова-Ланина, Станислав Ширин, Валерия Шкирандо, Вячеслав Разбегаев, Александр Семенов, Владимир Бутенко, Мила Максимова

О фильме:
Во времена Холодной войны секретная организация «Патриот» создала отряд супергероев, в который вошли участники из различных советских республик. Долгие годы героям приходилось скрывать свою сущность, однако в тяжелые для страны времена они вновь берутся за дело.



Страна: Россия
Студия: Enjoy Movies
Продолжительность: 01:28:57
Перевод: Не требуется

Файл
Качество: BDRip (исх. Защитники (2016) Blu-ray RUS 1080p AVC DTS-HD 5.1)
Кодек: XviD
Видео: 720x304 (2.35:1), 24 fps, XviD ~1893 kbps avg, 0.360 bit/pixel
Аудио: AC3, 48 kHz, 6 ch, ~448.00 kbps avg | русский |
Субтитры: Отсутствуют
Семпл
Общее
Полное имя : Zashchitniki.2017.BDRip_POWER.avi
Формат : AVI
Формат/Информация : Audio Video Interleave
Размер файла : 1,46 Гбайт
Продолжительность : 1 ч. 28 м.
Общий поток : 2351 Кбит/сек
Название фильма : Защитники (2016)
Режиссёр : *** stillet ***
Жанр : Фантастика, фэнтези, боевик, приключения
Программа кодирования : VirtualDubMod 1.5.10.3 (build 2550/release)
Библиотека кодирования : VirtualDubMod build 2550/release

Видео
Идентификатор : 0
Формат : MPEG-4 Visual
Профиль формата : Advanced Simple@L5
Параметр BVOP формата : 2
Параметр QPel формата : Нет
Параметр GMC формата : Без точки перехода
Параметр матрицы формата : Выборочная
Идентификатор кодека : XVID
Идентификатор кодека/Подсказка : XviD
Продолжительность : 1 ч. 28 м.
Битрейт : 1893 Кбит/сек
Ширина : 720 пикселей
Высота : 304 пикселя
Соотношение сторон : 2,35:1
Частота кадров : 24,000 кадра/сек
Цветовое пространство : YUV
Субдискретизация насыщенности : 4:2:0
Битовая глубина : 8 бит
Тип развёртки : Прогрессивная
Метод сжатия : С потерями
Бит/(Пиксели*Кадры) : 0.360
Размер потока : 1,18 Гбайт (81%)
Библиотека кодирования : XviD 73

Аудио
Идентификатор : 1
Формат : AC-3
Формат/Информация : Audio Coding 3
Параметр Endianness формата : Big
Идентификатор кодека : 2000
Продолжительность : 1 ч. 28 м.
Вид битрейта : Постоянный
Битрейт : 448 Кбит/сек
Каналы : 6 каналов
Расположение каналов : Front: L C R, Side: L R, LFE
Частота : 48,0 КГц
Частота кадров : 31,250 кадров/сек (1536 spf)
Битовая глубина : 16 бит
Метод сжатия : С потерями
Размер потока : 285 Мбайт (19%)
Выравнивание : Разделение по промежуткам
Продолжительность промежутка : 42 мс. (1,00 видеокадр)
Время предзагрузки промежутка : 500 мс.
Релиз от: Rip by: stillet

Трекер:  [ 21-Апр-2017 10:00 ]

  

Скачать .torrent

Размер .torrent файла 15 KB


Размер: 1.46 GB
Хэш (hash) релиза: c3f35bb07160cb7e7c8d28ae4731fdad548e484f
Подписка на обновления:

Торренты, похожие на Защитники скачать торрент

Форум Название Автор Размер S L Добавлен
Российские фильмы до 2016 ·· Защитники (Сарик Андреасян) [2017, Фантастика, фэнтези, боевик, приключения, BDRip-AVC, AVC] Galfimbul 27297380072.54 GB 2 0 1492944387

13:46

23-Апр-17

Российские фильмы до 2016 ·· Защитники (Сарик Андреасян) [2017, Россия, фантастика, фэнтези, боевик, приключения, BDRip 1080p] + Original Rus Galfimbul 84174139907.84 GB 0 0 1492851448

11:57

22-Апр-17

Российские фильмы до 2016 ·· Защитники (Сарик Андреасян) [2017, Россия, фантастика, фэнтези, боевик, приключения, BDRip 720p] + Original Rus Galfimbul 47112172644.39 GB 0 0 1492851441

11:57

22-Апр-17

Российские фильмы до 2016 ·· Защитники (Сарик Андреасян) [2017, фантастика, фэнтези, боевик, приключения, BDRip] Galfimbul 15681638401.46 GB 0 0 1492765553

12:05

21-Апр-17

Российские фильмы до 2016 ·· Защитники (Сарик Андреасян) [2017, Россия, фантастика, фэнтези, боевик, приключения, Blu-ray disc 1080p] (RUS) + Original Rus Galfimbul 1838028481217.12 GB 0 0 1492760985

10:49

21-Апр-17

Российские фильмы 2016-2017 (Новинки русского кино) ·· Защитники (Сарик Андреасян) [2016, фантастика, фэнтези, боевик, приключения, HDRip] Лицензия Galfimbul 14684753921.37 GB 0 0 1492756775

09:39

21-Апр-17

Российские фильмы 2016-2017 (Новинки русского кино) ·· Защитники (Сарик Андреасян) [2016, фантастика, фэнтези, боевик, приключения, Blu-Ray 1080р] Лицензия Galfimbul 1838028481217.12 GB 4 0 1492742392

05:39

21-Апр-17

Российские фильмы до 2016 ·· Защитники (Сарик Андреасян) [2016, фантастика, фэнтези, боевик, приключения, WEB-DLRip] Galfimbul 15671500801.46 GB 0 0 1491620466

06:01

8-Апр-17

Российские фильмы до 2016 ·· Защитники (Сарик Андреасян) [2016, фантастика, фэнтези, боевик, WEB-DLRip-AVC] Galfimbul 14871184031.38 GB 0 0 1491582769

19:32

7-Апр-17

Российские фильмы 2016-2017 (Новинки русского кино) ·· Защитники (Сарик Андреасян) [2017, фантастика, фэнтези, боевик, приключения, WEB-DLRip] iTunes Galfimbul 14677626881.37 GB 5 0 1491507654

22:40

6-Апр-17

Российские фильмы 2016-2017 (Новинки русского кино) ·· Защитники (Сарик Андреасян) [2017, фантастика, фэнтези, боевик, приключения, WEB-DL 1080p] iTunes Galfimbul 32786672973.05 GB 6 0 1491507647

22:40

6-Апр-17

Российские фильмы 2016-2017 (Новинки русского кино) ·· Защитники (Сарик Андреасян) [2017, фантастика, фэнтези, боевик, приключения, WEB-DL 1080p] iTunes Galfimbul 32786672973.05 GB 5 0 1491507641

22:40

6-Апр-17

Российские фильмы 2016-2017 (Новинки русского кино) ·· Защитники (Сарик Андреасян) [2017, фантастика, фэнтези, боевик, приключения, CAMRip] Galfimbul 14670151681.37 GB 7 0 1487875499

21:44

23-Фев-17

Мультсериалы ·· Вольтрон: Легендарный защитник / Voltron: Legendary Defender / Сезон: 1-2 / Серии: 1-12 из 25 (Хоаким Дос Сантос / Joaquim Dos Santos) [2016-2017, США, мультфильм, фантастика, приключения, WEBRip 1080p] Rus Sub Galfimbul 1320430839012.3 GB 0 0 1485216116

03:01

24-Янв-17

Зарубежные фильмы до 2016 ·· Защитник / Concussion (Питер Ландесман / Peter Landesman) [2015, Великобритания, Австралия, США, драма, биография, спорт, BDRip 1080p] DUB (Blu-ray) + DVO (Паровоз Продакшн) + MVO (ColdFilm) + 4x Sub (Rus, Eng) + Original Eng Galfimbul 1420873579913.23 GB 0 0 1471602963

13:36

19-Авг-16

Мультсериалы ·· Вольтрон: Легендарный защитник / Voltron: Legendary Defender / Сезон: 1 / Серии: 01-11 из 11 (Хоаким Дос Сантос / Joaquim Dos Santos) [2016, США, мультфильм, фантастика, приключения, WEBRip] AVO + Rus Sub Galfimbul 36270846733.38 GB 0 0 1469385801

21:43

24-Июл-16

Зарубежные фильмы до 2016 ·· Защитник / Concussion (Питер Ландесман / Peter Landesman) [2015, Великобритания, Австралия, США, драма, биография, спорт, BDRip-AVC] Dub + Sub (rus) Galfimbul 15647674011.46 GB 0 0 1469103099

15:11

21-Июл-16

Зарубежные фильмы до 2016 ·· Защитник / Concussion (Питер Ландесман / Peter Landesman) [2015, Великобритания, Австралия, США, драма, биография, спорт, BDRip-AVC] Dub + Original (eng) + Sub (rus, ukr, eng) Galfimbul 23438265512.18 GB 2 0 1469103076

15:11

21-Июл-16

Зарубежные фильмы до 2016 ·· Защитник / Concussion (Питер Ландесман / Peter Landesman) [2015, Великобритания, Австралия, США, драма, биография, спорт, BDRip-AVC] Dub + Sub (rus) Galfimbul 781879807746 MB 0 0 1469103069

15:11

21-Июл-16

rxxx14pro

Днощитники, «Отряд советских дебилов»

Хотите добавить комментарий к записи скачать торрент Защитники

!Обратная связь