Скачать через торрент Трое это компания Трое сверху Фильм бесплатно в хорошем качестве torrent

Скачивайте на UnionPeer.org фильмы через торрент без регистрации. Новинки кино в хорошем качестве через торрент. На UnionPeer.org можно скачать через торрент фильмы 2014 и 2015 годов. Самые новые фильмы.

Скачать торрент Трое это компания Трое сверху бесплатно через .torrent фильм мультфильм сериал

Если у вас наблюдаются проблемы со скриншотами, переходом по ссылками, скачиванием торрентов - проблемы в блокировщике рекламы AdBlock. #хорошегоДня!


Статистика раздачи
Размер:  3.19 GB   |    Зарегистрирован:  3 месяца 2 дня   |    .torrent скачан:  17 раз   |   
Раздают:  1  
   
Загрузка...
 
Автор Сообщение

Galfimbul

avatar Galfimbul


Трое это компания / Трое сверху / Three's Company

Год выпуска: 1982
Страна: США
Жанр: ситком
Продолжительность: 00:25:00

Перевод: Субтитры zare

Режиссёр: Дэйв Пауэрс / Dave Powers

В ролях: John Ritter, Joyce DeWitt, Suzanne Somers, Audra Lindley, Norman Fell, Richard Kline, Don Knotts, Jenilee Harrison, Priscilla Barnes

Описание: «Трое — это компания» — длительный американский комедийный телесериал, который транслировался на канале ABC с 15 марта 1977 года по 18 сентября 1984 года. Сериал был основан на британском шоу 1973-76 годов и рассказывал о трех молодых людях, которые жили в одной квартире над взрослой парой сверху.
Проект был крайне успешен в рейтингах и с 1977 по 1980 год занимал вторую строчку в годовой рейтинговой таблице самых наблюдаемых программ со средней аудиторией более двадцати миллионов за эпизод Сериал стартовал на волне успеха шоу «Ангелы Чарли» и эксплуатировал в рекламной кампании лозунг «Секс и телевидение», ставя в центр сексуальное напряжение между главными героями, а Сьюзан Сомерс быстро стала секс-символом уровня Фэрры Фосетт. В 1978 году шоу номинировалось на премию «Эмми» за лучший комедийный сериал, а Джон Риттер в 1984 году получил «Эмми» за лучшую мужскую роль в комедийном телесериале. В 1979 году Норман Фелл выиграл «Золотой глобус» за лучшую роль второго плана , а в 1984 Риттер получил «Золотой глобус» за лучшую мужскую роль в телевизионном сериале . В 1979 и 1984 годах сериал получал премию «Выбор народа» в категории «Любимое телешоу».

Ссылка на предыдущие и альтернативные раздачи:

Сэмпл: http://sendfile.su/1271531

Качество: DVDRip
Формат: AVC
Видео: AVC, 624x480 (4:3), 29.970 fps, 1182 Kbps, 0.13 bit/pixel
Аудио: AC3, 48 kHz, 2 ch, 192 kbps
Субтитры: русские, srt
Общее
Уникальный идентификатор : 198530717792005522910688730897892562934 (0x955BA01C067765FD85F53C6A5F70D7F6)
Полное имя : C:\Users\Alex\Dropbox\Taxi\Трое это компания -7\Three's Company.S07E01.mkv
Формат : Matroska
Версия формата : Version 4 / Version 2
Размер файла : 177 Мбайт
Продолжительность : 25 м. 7 с.
Общий поток : 984 Кбит/сек
Дата кодирования : UTC 2016-10-05 07:11:28
Программа кодирования : mkvmerge v7.2.0 ('On Every Street') 32bit built on Sep 13 2014 15:42:11
Библиотека кодирования : libebml v1.3.0 + libmatroska v1.4.1

Видео
Идентификатор : 1
Формат : AVC
Формат/Информация : Advanced Video Codec
Профиль формата : High@L3
Параметр CABAC формата : Да
Параметр ReFrames формата : 4 кадра
Идентификатор кодека : V_MPEG4/ISO/AVC
Продолжительность : 25 м. 7 с.
Битрейт : 790 Кбит/сек
Ширина : 624 пикселя
Высота : 480 пикселей
Соотношение сторон : 4:3
Режим частоты кадров : Постоянный
Частота кадров : 29,970 (30000/1001) кадров/сек
Цветовое пространство : YUV
Субдискретизация насыщенности : 4:2:0
Битовая глубина : 8 бит
Тип развёртки : Прогрессивная
Бит/(Пиксели*Кадры) : 0.088
Размер потока : 142 Мбайт (80%)
Библиотека кодирования : x264 core 138 r2358 9e941d1
Настройки программы : cabac=1 / ref=3 / deblock=1:0:0 / analyse=0x3:0x113 / me=hex / subme=7 / psy=1 / psy_rd=1.00:0.00 / mixed_ref=1 / me_range=16 / chroma_me=1 / trellis=1 / 8x8dct=1 / cqm=0 / deadzone=21,11 / fast_pskip=1 / chroma_qp_offset=-2 / threads=6 / lookahead_threads=1 / sliced_threads=0 / nr=0 / decimate=1 / interlaced=0 / bluray_compat=0 / constrained_intra=0 / bframes=3 / b_pyramid=2 / b_adapt=1 / b_bias=0 / direct=1 / weightb=1 / open_gop=0 / weightp=2 / keyint=300 / keyint_min=29 / scenecut=40 / intra_refresh=0 / rc_lookahead=40 / rc=crf / mbtree=1 / crf=23.0 / qcomp=0.60 / qpmin=0 / qpmax=69 / qpstep=4 / ip_ratio=1.40 / aq=1:1.00
Default : Да
Forced : Нет

Аудио
Идентификатор : 2
Формат : AC-3
Формат/Информация : Audio Coding 3
Расширение режима : CM (complete main)
Параметр Endianness формата : Big
Идентификатор кодека : A_AC3
Продолжительность : 25 м. 7 с.
Вид битрейта : Постоянный
Битрейт : 192 Кбит/сек
Каналы : 2 канала
Расположение каналов : Front: L R
Частота : 48,0 КГц
Частота кадров : 31,250 кадров/сек (1536 spf)
Метод сжатия : С потерями
Размер потока : 34,5 Мбайт (20%)
Язык : English
Default : Да
Forced : Нет
Внимание! Раздача ведётся путём добавления новых серий; при каждом добавлении создаётся новый торрент. Чтобы начать докачку новой серии, пользователям необходимо сделать следующее:
(1) остановить скачивание,
(2) удалить старый торрент у себя из клиента (старые серии удалять не надо),
(3) скачать новый торрент и запустить его у себя в клиенте вместо старого, при этом указать клиенту путь в старую папку куда и должно происходить скачивание новых серий.

Ваш клиент при этом должен произвести хеширование (проверку) старой папки (если не производит сам - помогите ему сделать это), и будет докачивать только те серии которых у вас ещё нет. Старые серии при этом не удаляются, а продолжают раздаваться!

Eсли вы уже удалили старые серии, то предотвратить повторную закачку старых серий можно, отжав галочку в соответствующих местах при запуске нового торрента. По возможности, желательно не удалять старые серии как можно дольше чтобы релизёр не столько продолжал раздавать старые серии, а смог сконцентрироваться на новых.


Трекер:  [ 21-Апр-2017 09:00 ]

  

Скачать .torrent

Размер .torrent файла 18 KB


Размер: 3.19 GB
Хэш (hash) релиза: 343d57ebc639fe3993f62dbcf972ec2da5f6a02d
Подписка на обновления:

Еще никто не оставлял запись к записи скачать торрент Трое это компания Трое сверху . Будь первым!

!Обратная связь