Скачать через торрент Персональный покупатель Personal Shopper Фильм бесплатно в хорошем качестве torrent

Скачивайте на UnionPeer.org фильмы через торрент без регистрации. Новинки кино в хорошем качестве через торрент. На UnionPeer.org можно скачать через торрент фильмы 2014 и 2015 годов. Самые новые фильмы.

Скачать торрент Персональный покупатель Personal Shopper бесплатно через .torrent фильм мультфильм сериал

Статистика раздачи
Размер:  1.46 GB   |    Зарегистрирован:  2 дня 14 часов   |    .torrent скачан:  70 раз   |   
Раздают:  4   Качают:  1  
   
 
Автор Сообщение

Galfimbul

avatar Galfimbul


Персональный покупатель
Personal Shopper
Год выпуска: 2016
Страна: Франция, Германия
Жанр: триллер, драма, детектив
Продолжительность: 01:45:12
Перевод: Профессиональный (многоголосый закадровый) - (iTunes)
Субтитры: нет
Режиссер: Оливье Ассайас / Olivier Assayas
В ролях: Кристен Стюарт, Ларс Айдингер, Сигрид Буази, Андерс Даниелсен Лье, Ty Olwin, Хамму Грайа, Нора фон Вальдштеттен, Бенжамин Биолэй, Одри Бонне, Паскаль Рамберт
О фильме: Молодая американка Морин, переехавшая в Париж, помогает знаменитостям подбирать наряды. С миром высокой моды она на ты. Её жизнь кажется мечтой, но всё усложняет паранормальная особенность — Морин умеет общаться с призраками.
Качество: BDRip (источник: PERSONAL_SHOPPER_REMUX_HDCLUB)
Автор: Yugosan
Формат: AVI
Видео: 720x304 (2.37:1), 23.976 fps, XviD build 73 ~1593 kbps avg, 0.30 bit/pixel
Аудио: 48 kHz, AC3 Dolby Digital, 3/2 (L,C,R,l,r) + LFE ch, ~384.00 kbps avg
Скачать: Сэмпл
General
Complete name                            : G:\Personal.Shopper.2016.BDRip.avi
Format                                   : AVI
Format/Info                              : Audio Video Interleave
File size                                : 1.46 GiB
Duration                                 : 1 h 45 min
Overall bit rate                         : 1 987 kb/s
Writing application                      : VirtualDubMod 1.5.10.3 | www.virtualdub-fr.org || (build 2550/release)
Writing library                          : VirtualDubMod build 2550/release

Video
ID                                       : 0
Format                                   : MPEG-4 Visual
Format profile                           : Advanced Simple@L5
Format settings, BVOP                    : 1
Format settings, QPel                    : No
Format settings, GMC                     : No warppoints
Format settings, Matrix                  : Default (H.263)
Codec ID                                 : XVID
Codec ID/Hint                            : XviD
Duration                                 : 1 h 45 min
Bit rate                                 : 1 594 kb/s
Width                                    : 720 pixels
Height                                   : 304 pixels
Display aspect ratio                     : 2.35:1
Frame rate                               : 23.976 (24000/1001) FPS
Color space                              : YUV
Chroma subsampling                       : 4:2:0
Bit depth                                : 8 bits
Scan type                                : Progressive
Compression mode                         : Lossy
Bits/(Pixel*Frame)                       : 0.304
Stream size                              : 1.17 GiB (80%)
Writing library                          : XviD 73

Audio
ID                                       : 1
Format                                   : AC-3
Format/Info                              : Audio Coding 3
Format settings, Endianness              : Big
Codec ID                                 : 2000
Duration                                 : 1 h 45 min
Bit rate mode                            : Constant
Bit rate                                 : 384 kb/s
Channel(s)                               : 6 channels
Channel positions                        : Front: L C R, Side: L R, LFE
Sampling rate                            : 48.0 kHz
Frame rate                               : 31.250 FPS (1536 spf)
Bit depth                                : 16 bits
Compression mode                         : Lossy
Stream size                              : 289 MiB (19%)
Alignment                                : Split accross interleaves
Interleave, duration                     : 42  ms (1.00 video frame)
Interleave, preload duration             : 500  ms
Service kind                             : Complete Main


Трекер:  [ 21-Апр-2017 08:30 ]

  

Скачать .torrent

Размер .torrent файла 15 KB


Размер: 1.46 GB
Хэш (hash) релиза: c3b0ba9af1712e4fc923246d0e94847fb39a9f36
Подписка на обновления:

Торренты, похожие на Персональный покупатель Personal Shopper скачать торрент

Форум Название Автор Размер S L Добавлен
Зарубежные фильмы 2016-2017 (Новинки зарубежного кино) ·· Персональный покупатель / Personal Shopper (Оливье Ассайас / Olivier Assayas) [2016, Франция, Германия, триллер, драма, детектив, WEB-DLRip] MVO (iTunes) Galfimbul 15680307201.46 GB 3 0 1492681021

12:37

20-Апр-17

Зарубежные фильмы 2016-2017 (Новинки зарубежного кино) ·· Персональный покупатель / Personal Shopper (Оливье Ассайас) [2016, триллер, драма, детектив, BDRip 1080p]iTunes Galfimbul 84988173517.92 GB 0 0 1492600342

14:12

19-Апр-17

Зарубежные фильмы 2016-2017 (Новинки зарубежного кино) ·· Персональный покупатель / Personal Shopper (Оливье Ассайас) [2016, триллер, драма, детектив, BDRip 720p] iTunes Galfimbul 49957084974.65 GB 3 0 1492598780

13:46

19-Апр-17

Зарубежные фильмы 2016-2017 (Новинки зарубежного кино) ·· Персональный покупатель / Personal Shopper (Оливье Ассайас) [2016, триллер, драма, детектив, HDRip] iTunes Galfimbul 14673285121.37 GB 4 0 1492483251

05:40

18-Апр-17

Зарубежные фильмы 2016-2017 (Новинки зарубежного кино) ·· Персональный покупатель / Personal Shopper (Оливье Ассайас) [2016, триллер, драма, детектив, WEB-DL 1080p] Galfimbul 40012869463.73 GB 4 0 1491141094

16:51

2-Апр-17

Зарубежные фильмы 2016-2017 (Новинки зарубежного кино) ·· Персональный покупатель / Personal Shopper (Оливье Ассайас) [2016, триллер, драма, детектив, CAMRip] Galfimbul 14676684801.37 GB 2 0 1489048802

11:40

9-Мар-17

Еще никто не оставлял запись к записи скачать торрент Персональный покупатель Personal Shopper . Будь первым!

!Обратная связь