Скачать через торрент Воронины Сезон 19 Фильм бесплатно в хорошем качестве torrent

Скачивайте на UnionPeer.org фильмы через торрент без регистрации. Новинки кино в хорошем качестве через торрент. На UnionPeer.org можно скачать через торрент фильмы 2014 и 2015 годов. Самые новые фильмы.

Скачать торрент Воронины Сезон 19 бесплатно через .torrent фильм мультфильм сериал

Если у вас наблюдаются проблемы со скриншотами, переходом по ссылками, скачиванием торрентов - проблемы в блокировщике рекламы AdBlock. #хорошегоДня!


Статистика раздачи
Размер:  11.51 GB   |    Зарегистрирован:  4 месяца 28 дней   |    .torrent скачан:  47 раз   |   
Раздают:  1  
   
Загрузка...
 
Автор Сообщение

Galfimbul

avatar Galfimbul


Воронины / Сезон 19 / Серии 1-19 из ?? (404-422 из ???)

Год выпуска: 2017
Производство: Россия, СТС
Жанр: комедия, семейное кино
Продолжительность: 19 серий по ~ 24 минуты
Субтитры: нет

Режиссёр: Александр Жигалкин

В ролях: Георгий (Егор) Дронов, Екатерина Волкова (II), Станислав Дужников, Борис Клюев, Анна Фроловцева

Описание: В обычном доме в трехкомнатной квартире живет молодая семья: Костя, его жена Вера и их дети – пятилетняя дочка и два маленьких сына-близнеца. Костя – известный спортивный журналист. Жена Вера любит его и ведет все хозяйство, а дети не доставляют много хлопот. Гораздо больше хлопот им приносят родители Кости, которые живут напротив на той же лестничной площадке… Воронины – это история о том, что иногда родственники бывают слишком близкими.

Релиз: Shel

Сэмпл: multi-up.com

Качество: DVB
Формат: TS
Видео кодек: h264 AVC
Аудио кодек: MP2
Видео: 720x576 (1.33:1), 25 fps, Mpeg4 AVC ~3200 kbps avg, 0.30 bit/pixel
Аудио: 48 kHz, MPEG Layer 2, 2 ch, ~256.00 kbps avg
General
ID : 1 (0x1)
Format : MPEG-TS
File size : 616 MiB
Duration : 23mn 38s
Overall bit rate mode : Variable
Overall bit rate : 3 643 Kbps

Video
ID : 75 (0x4B)
Menu ID : 14 (0xE)
Format : AVC
Format/Info : Advanced Video Codec
Format profile : High@L3.0
Format settings, CABAC : Yes
Format settings, ReFrames : 3 frames
Codec ID : 27
Duration : 23mn 38s
Bit rate : 3 204 Kbps
Width : 720 pixels
Height : 576 pixels
Display aspect ratio : 4:3
Frame rate : 25.000 fps
Standard : Component
Color space : YUV
Chroma subsampling : 4:2:0
Bit depth : 8 bits
Scan type : Interlaced
Scan order : Top Field First
Bits/(Pixel*Frame) : 0.309
Stream size : 542 MiB (88%)
Color primaries : BT.601 PAL
Transfer characteristics : BT.470 System B, BT.470 System G
Matrix coefficients : BT.601
Color range : Limited

Audio
ID : 76 (0x4C)
Menu ID : 14 (0xE)
Format : MPEG Audio
Format version : Version 1
Format profile : Layer 2
Codec ID : 3
Duration : 23mn 38s
Bit rate mode : Constant
Bit rate : 256 Kbps
Channel(s) : 2 channels
Sampling rate : 48.0 KHz
Compression mode : Lossy
Delay relative to video : -120ms
Stream size : 43.3 MiB (7%)
Language : English
Как закачать отдельный файл из торрента или докачать ранее пропущенные файлы торрента.

Трекер:  [ 21-Апр-2017 06:30 ]

  

Скачать .torrent

Размер .torrent файла 60 KB


Размер: 11.51 GB
Хэш (hash) релиза: fe021e803bc24fefb114b41561130bf86483ee7f
Подписка на обновления:

Торренты, похожие на Воронины Сезон 19 скачать торрент

Форум Название Автор Размер S L Добавлен
Российские сериалы ·· Воронины / Сезон 19 / Серии 1-19 из ?? (404-422 из ???) (Александр Жигалкин) [2017, комедия, семейное кино, IPTVRip] Galfimbul 67533345386.29 GB 0 0 1492746189

06:43

21-Апр-17

Российские сериалы ·· Воронины / Сезон 19 / Серии 1-18 из ?? (404-421 из ???) (Александр Жигалкин) [2017, комедия, семейное кино, DVB] Galfimbul 1170731666810.9 GB 0 0 1492629297

22:14

19-Апр-17

Российские сериалы ·· Воронины / Сезон 19 / Серии 1-18 из ?? (404-421 из ???) (Александр Жигалкин) [2017, комедия, семейное кино, IPTVRip] Galfimbul 63942513825.96 GB 0 0 1492629274

22:14

19-Апр-17

Российские сериалы ·· Воронины / Сезон 19 / Серии 1-17 из ?? (404-420 из ???) (Александр Жигалкин) [2017, комедия, семейное кино, IPTVRip] Galfimbul 60356411845.62 GB 0 0 1492580663

08:44

19-Апр-17

Российские сериалы ·· Воронины / Сезон 19 / Серии 1-15 из ?? (404-419 из ???) (Александр Жигалкин) [2017, комедия, семейное кино, DVB] Galfimbul 104191167929.7 GB 0 0 1492485158

06:12

18-Апр-17

Российские сериалы ·· Воронины / Сезон 19 / Серии 1-15 из ?? (404-419 из ???) (Александр Жигалкин) [2017, комедия, семейное кино, IPTVRip] Galfimbul 56842528205.29 GB 0 0 1492485152

06:12

18-Апр-17

Российские сериалы ·· Воронины / Сезон 19 / Серии 1-11 из ?? (404-414 из ???) (Александр Жигалкин) [2017, комедия, семейное кино, DVB] Galfimbul 71784350206.69 GB 0 0 1490296544

22:15

23-Мар-17

Российские сериалы ·· Воронины / Сезон 19 / Серии 1-11 из ?? (404-414 из ???) (Александр Жигалкин) [2017, комедия, семейное кино, IPTVRip] Galfimbul 39038928183.64 GB 0 0 1490296500

22:15

23-Мар-17

Российские сериалы ·· Воронины / Сезон 19 / Серии 1-9 из ?? (404-412 из ???) (Александр Жигалкин) [2017, комедия, семейное кино, DVB] Galfimbul 58676653685.46 GB 0 0 1490118168

20:42

21-Мар-17

Российские сериалы ·· Воронины / Сезон 19 / Серии 1-9 из ?? (404-412 из ???) (Александр Жигалкин) [2017, комедия, семейное кино, IPTVRip] Galfimbul 31934728562.97 GB 0 0 1490118162

20:42

21-Мар-17

Российские сериалы ·· Воронины / Сезон 19 / Серии 1-8 из ?? (404-411 из ???) (Александр Жигалкин) [2017, комедия, семейное кино, DVB] Galfimbul 52050294764.85 GB 0 0 1490025690

19:01

20-Мар-17

Российские сериалы ·· Воронины / Сезон 19 / Серии 1-8 из ?? (404-411 из ???) (Александр Жигалкин) [2017, комедия, семейное кино, IPTVRip] Galfimbul 28328767402.64 GB 0 0 1490025683

19:01

20-Мар-17

Российские сериалы ·· Воронины / Сезон 19 / Серии 1-7 из ?? (404-410 из ???) (Александр Жигалкин) [2017, комедия, семейное кино, DVB] Galfimbul 45483200964.24 GB 0 0 1489754595

15:43

17-Мар-17

Российские сериалы ·· Воронины / Сезон 19 / Серии 1-7 из ?? (404-410 из ???) (Александр Жигалкин) [2017, комедия, семейное кино, IPTVRip] Galfimbul 24755362482.31 GB 0 0 1489754589

15:43

17-Мар-17

Российские сериалы ·· Воронины / Сезон 19 / Серии 1-6 из ?? (404-409 из ???) (Александр Жигалкин) [2017, комедия, семейное кино, DVB] Galfimbul 39033610923.64 GB 0 0 1489587161

17:12

15-Мар-17

Российские сериалы ·· Воронины / Сезон 19 / Серии 1-6 из ?? (404-409 из ???) (Александр Жигалкин) [2017, комедия, семейное кино, IPTVRip] Galfimbul 21244090541.98 GB 0 0 1489587144

17:12

15-Мар-17

Российские сериалы ·· Воронины / Сезон 19 / Серии 1-5 из ?? (404-408 из ???) (Александр Жигалкин) [2017, комедия, семейное кино, DVB] Galfimbul 32474080363.02 GB 0 0 1489536808

03:13

15-Мар-17

Российские сериалы ·· Воронины / Сезон 19 / Серии 1-5 из ?? (404-408 из ???) (Александр Жигалкин) [2017, комедия, семейное кино, IPTVRip] Galfimbul 17673505481.65 GB 0 0 1489536800

03:13

15-Мар-17

Российские сериалы ·· Воронины / Сезон 17 / Серии 1-19 из 25 (357-375 из 381) (Александр Жигалкин) [2016, комедия, семейное кино, IPTVRip] Galfimbul 67909151666.32 GB 0 0 1476832248

02:10

19-Окт-16

Еще никто не оставлял запись к записи скачать торрент Воронины Сезон 19 . Будь первым!

!Обратная связь