Скачать через торрент Ты назови... Adını Sen Koy Фильм бесплатно в хорошем качестве torrent

Скачивайте на UnionPeer.org фильмы через торрент без регистрации. Новинки кино в хорошем качестве через торрент. На UnionPeer.org можно скачать через торрент фильмы 2014 и 2015 годов. Самые новые фильмы.

Скачать торрент Ты назови... Adını Sen Koy бесплатно через .torrent фильм мультфильм сериал

Статистика раздачи
Размер:  19.89 GB   |    Зарегистрирован:  3 дня   |    .torrent скачан:  17 раз   |   
Раздают:  2  
   
 
Автор Сообщение

Galfimbul

avatar Galfimbul


Ты назови... / Adını Sen Koy

Год выпуска: 2016-2017
Страна: Турция
Производство: Genel Izleyici
Жанр: Мелодрама
Серии (количество): 1-25 (190)
Продолжительность: ~ 01:00:00 / каждая серия
Перевод: любительский одноголосый закадровый (Kerem's 13 и Галина Мительман)
Субтитры: отсутствуют

Режиссёр: Атилла Дженгиз / Atilla Cengiz, Ырмак Ченгел / Irmak Çengel

В ролях: Эркан Мерич, Хазал Субашы, Эзги Баран, Йапрак Дурмаз, Айкут Игдели, Нур Сачбюкер Отан, Мусаб Екиджи, Али Чобан, Умут Аксой, Фатьма Каранфил, Элиф Султан Таш, Берна Учкалелер, Атилла Пекдемир, Дерья Куртулуш, Халит Ерман Эрсой, Гёзде Гюркан, Ханде Оздемир, Борга Кёпрюлю, Хазел Айналы

Описание: Ты назови... – это очередная интересная история, которая определённо заслуживает нашего внимания. Похоже на то, что сценаристы и продюсеры решили сделать нам предновогодний подарок. Как и многие другие телесериалы, события этого, будут разворачиваться вокруг двух молодых людей. А в основу сюжета ляжет прекрасное чувство любовь. Правда, всё не так уж и просто, и совсем скоро вы об этом узнаете. Главным персонажем телесериала является мужчина по имени Омер. К превеликому сожалению, жить ему осталось всего на всего - 6 месяцев. Но, несмотря на этот факт, он не стал замыкаться в себе, напротив. Сейчас мужчина живёт полноценной жизнью. А в один день, он, скажем так, «принял участие в игре». Ради того, чтобы осчастливить свою младшую сестру – он вынужден жениться на девушке по имени Зехра. Следует отметить, что эта девушка можно сказать из абсолютно другого мира, так как Зехра и Омер – совершенно разные люди, не похожи друг на друга. И вот главные персонажи этой истории вступают в брак, правда этот брак – фиктивный. Несмотря на своё состояние, Омер решил всё-таки заключить брачный договор, причём на своих условиях. По факту, Омер будто купил шесть месяцев жизни Зехре. Но, казалось бы, что в этом нет ничего интересного и интригующего. Но, как зачастую бывает – это не так. Впереди не только нас с вами, но и главных героев ожидает масса сюрпризов и непредвиденных поворотов событий. Поэтому не пропустите новинку, и начните смотреть.

Ссылка на предыдущие и альтернативные раздачи: ...Ad%C4%B1n%C4%B1%20Sen%20Koy

Качество: WEBRip (720р)
Формат: MP4
Видео кодек: H.264
Аудио кодек: AAC
Видео: MPEG4 Video (H264) 1280x720 25fps 1 980 Kbps
Аудио: AAC 44100Hz stereo 151kbps
General
Complete name : H:\Сериалы\Ty.nazovi.2016.L1.WEBRip720p\Ty.nazovi.s01.e07.2016.L1.WEBRip720p.mp4
Format : MPEG-4
Format profile : Base Media
Codec ID : isom
File size : 686 MiB
Duration : 44mn 51s
Overall bit rate mode : Variable
Overall bit rate : 2 139 Kbps
Writing application : Lavf56.25.101

Video
ID : 1
Format : AVC
Format/Info : Advanced Video Codec
Format profile : High@L3.1
Format settings, CABAC : Yes
Format settings, ReFrames : 4 frames
Codec ID : avc1
Codec ID/Info : Advanced Video Coding
Duration : 44mn 51s
Bit rate : 1 980 Kbps
Width : 1 280 pixels
Height : 720 pixels
Display aspect ratio : 16:9
Frame rate mode : Constant
Frame rate : 25.000 fps
Color space : YUV
Chroma subsampling : 4:2:0
Bit depth : 8 bits
Scan type : Progressive
Bits/(Pixel*Frame) : 0.086
Stream size : 635 MiB (93%)
Writing library : x264 core 142
Encoding settings : cabac=1 / ref=3 / deblock=1:0:0 / analyse=0x3:0x113 / me=hex / subme=7 / psy=1 / psy_rd=1.00:0.00 / mixed_ref=1 / me_range=16 / chroma_me=1 / trellis=1 / 8x8dct=1 / cqm=0 / deadzone=21,11 / fast_pskip=1 / chroma_qp_offset=-2 / threads=6 / lookahead_threads=1 / sliced_threads=0 / nr=0 / decimate=1 / interlaced=0 / bluray_compat=0 / constrained_intra=0 / bframes=3 / b_pyramid=2 / b_adapt=1 / b_bias=0 / direct=1 / weightb=1 / open_gop=0 / weightp=2 / keyint=25 / keyint_min=2 / scenecut=40 / intra_refresh=0 / rc_lookahead=25 / rc=2pass / mbtree=1 / bitrate=1980 / ratetol=1.0 / qcomp=0.60 / qpmin=0 / qpmax=69 / qpstep=4 / cplxblur=20.0 / qblur=0.5 / ip_ratio=1.40 / aq=1:1.00

Audio
ID : 2
Format : AAC
Format/Info : Advanced Audio Codec
Format profile : LC
Codec ID : 40
Duration : 44mn 51s
Bit rate mode : Variable
Bit rate : 152 Kbps
Maximum bit rate : 192 Kbps
Channel(s) : 2 channels
Channel positions : Front: L R
Sampling rate : 44.1 KHz
Compression mode : Lossy
Delay relative to video : 80ms
Stream size : 48.8 MiB (7%)


Трекер:  [ 20-Апр-2017 22:00 ]

  

Скачать .torrent

Размер .torrent файла 52 KB


Размер: 19.89 GB
Хэш (hash) релиза: 1daeabd07c638c615bde6c88fe3b8b0bdabed22a
Подписка на обновления:

Еще никто не оставлял запись к записи скачать торрент Ты назови... Adını Sen Koy . Будь первым!

!Обратная связь