Скачать через торрент Что и требовалось доказать Серии: 1-8 из 8 Фильм бесплатно в хорошем качестве torrent

Скачивайте на UnionPeer.org фильмы через торрент без регистрации. Новинки кино в хорошем качестве через торрент. На UnionPeer.org можно скачать через торрент фильмы 2014 и 2015 годов. Самые новые фильмы.

Скачать торрент Что и требовалось доказать Серии: 1-8 из 8 бесплатно через .torrent фильм мультфильм сериал

Если у вас наблюдаются проблемы со скриншотами, переходом по ссылками, скачиванием торрентов - проблемы в блокировщике рекламы AdBlock. #хорошегоДня!


Статистика раздачи
Размер:  9.59 GB   |    Зарегистрирован:  5 месяцев 2 дня   |    .torrent скачан:  165 раз   |   
Раздают:  2  
   
Загрузка...
 
Автор Сообщение

Galfimbul

avatar Galfimbul


Что и требовалось доказать
Год выпуска: 2017
Производство: Профит
Жанр: Детектив
Продолжительность: 00:50:00
Субтитры: нет

Режиссёр: Иван Китаев

В ролях: Тимофей Трибунцев, Денис Шведов, Андрей Полищук, Дмитрий Воробьёв (II), Дмитрий Енин, Дарья Румянцева, Андрей Феськов, Софья Озерова, Лидия Милюзина, Наталья Высочанская, Олег Куликович, Андрей Шимко, Денис Пьянов, Дмитрий Лысенков, Алексей Федькин, Андрей Чуманов, Софья Карабулина, Игорь Качаев, Юлия Рудина, Олег Жилин, Денис Синявский, Анна Вартанян, Никита Терентьев, Татьяна Рябоконь, Алексей Ведерников (II), Вячеслав Коробицин, Юлия Марченко, Виталий Куликов, Роман Кочержевский, Леонид Алимов, Ольга Кожевникова, Юлия Топольницкая, Дмитрий Сутырин, Ирина Горячева, Дмитрий Мурашев, Светлана Щедрина, Аркадий Волгин, Валентина Панина, Антон Пулит, Сергей Колос

Описание: Расследуя запутанные криминальные дела, следователь полиции Ширяев даже и не предполагал, что с помощью математики можно решить величайшие загадки, пока не познакомился с экстравагантным профессором Штоппелем. Анализируя хитроумные преступления и выявляя их закономерность, с помощью теорем и расчетов профессор помогает полиции найти и обезвредить преступников.
/ Сэмпл
Релиз-группа:
Качество: WEBRip 720p
Формат: MKV
Видео кодек: H.264
Аудио кодек: AC3
Видео: MPEG-4 AVC, 1280x720 (16:9), 25.000 fps, 3200 Kbps, 0.139 bits/pixel
Аудио: 48 kHz, AC3 Dolby Digital, 2 ch, 192 Kbps

Реклама: Нет
General

Complete name : Downloads\Chto.i.trebovalos.dokazat.2016.WEB-DL.(720p).BigFANgroup\Chto.i.trebovalos.dokazat.(01-02.serii).WEB-DL.(720p).BigFANgroup.mkv
Format : Matroska
Format version : Version 4 / Version 2
File size : 2.32 GiB
Duration : 1h 37mn
Overall bit rate mode : Variable
Overall bit rate : 3 398 Kbps
Encoded date : UTC 2017-04-18 17:09:55
Writing application : mkvmerge v9.4.0 ('Knurl') 32bit
Writing library : libebml v1.3.4 + libmatroska v1.4.5
DURATION : 01:37:46.432000000
NUMBER_OF_FRAMES : 183326
NUMBER_OF_BYTES : 140794368
_STATISTICS_WRITING_APP : mkvmerge v9.4.0 ('Knurl') 32bit
_STATISTICS_WRITING_DATE_UTC : 2017-04-18 17:09:55
_STATISTICS_TAGS : BPS DURATION NUMBER_OF_FRAMES NUMBER_OF_BYTES
Video #1
ID : 1
Format : AVC
Format/Info : Advanced Video Codec
Format profile : High@L4.1
Format settings, CABAC : Yes
Format settings, ReFrames : 4 frames
Codec ID : V_MPEG4/ISO/AVC
Duration : 1h 37mn
Bit rate mode : Variable
Bit rate : 3 200 Kbps
Maximum bit rate : 40.0 Mbps
Width : 1 280 pixels
Height : 720 pixels
Display aspect ratio : 16:9
Frame rate mode : Constant
Frame rate : 25.000 fps
Color space : YUV
Chroma subsampling : 4:2:0
Bit depth : 8 bits
Scan type : Progressive
Bits/(Pixel*Frame) : 0.139
Stream size : 2.14 GiB (92%)
Writing library : x264 core 148
Encoding settings : cabac=1 / ref=2 / deblock=1:0:0 / analyse=0x3:0x113 / me=hex / subme=6 / psy=1 / psy_rd=1.00:0.00 / mixed_ref=1 / me_range=16 / chroma_me=1 / trellis=1 / 8x8dct=1 / cqm=0 / deadzone=21,11 / fast_pskip=1 / chroma_qp_offset=-2 / threads=1 / lookahead_threads=1 / sliced_threads=0 / nr=0 / decimate=1 / interlaced=0 / bluray_compat=0 / constrained_intra=0 / bframes=3 / b_pyramid=2 / b_adapt=1 / b_bias=0 / direct=1 / weightb=1 / open_gop=0 / weightp=1 / keyint=250 / keyint_min=25 / scenecut=0 / intra_refresh=0 / rc_lookahead=30 / rc=abr / mbtree=1 / bitrate=3200 / ratetol=1.0 / qcomp=0.60 / qpmin=0 / qpmax=69 / qpstep=4 / ip_ratio=1.40 / aq=1:1.0
Language : Russian
Default : Yes
Forced : No
Audio #2
ID : 2
Format : AC-3
Format/Info : Audio Coding 3
Mode extension : CM (complete main)
Format settings, Endianness : Big
Codec ID : A_AC3
Duration : 1h 37mn
Bit rate mode : Constant
Bit rate : 192 Kbps
Channel(s) : 2 channels
Channel positions : Front: L R
Sampling rate : 48.0 KHz
Bit depth : 16 bits
Compression mode : Lossy
Stream size : 134 MiB (6%)
Language : Russian
Default : Yes
Forced : No


Трекер:  [ 20-Апр-2017 21:30 ]

  

Скачать .torrent

Размер .torrent файла 49 KB


Размер: 9.59 GB
Хэш (hash) релиза: a45882415e6d708942eb2d02a33473db223e5694
Подписка на обновления:

Торренты, похожие на Что и требовалось доказать Серии: 1-8 из 8 скачать торрент

Форум Название Автор Размер S L Добавлен
Российские сериалы ·· Что и требовалось доказать / Серии: 1-2 из 8 (Иван Китаев) [2016, детектив, SATRip-AVC] Galfimbul 12545480871.17 GB 0 0 1492501623

10:47

18-Апр-17

Российские сериалы ·· Что и требовалось доказать / Серии: 1-2 из 8 (Иван Китаев) [2017, Детектив, SATRip] Galfimbul 13638389761.27 GB 0 0 1492465414

00:43

18-Апр-17

Еще никто не оставлял запись к записи скачать торрент Что и требовалось доказать Серии: 1-8 из 8 . Будь первым!

!Обратная связь