Скачать через торрент Я ехала домой Сезон: Серии: 4-6 из 8 Фильм бесплатно в хорошем качестве torrent

Скачивайте на UnionPeer.org фильмы через торрент без регистрации. Новинки кино в хорошем качестве через торрент. На UnionPeer.org можно скачать через торрент фильмы 2014 и 2015 годов. Самые новые фильмы.

Скачать торрент Я ехала домой Сезон: Серии: 4-6 из 8 бесплатно через .torrent фильм мультфильм сериал

Если у вас наблюдаются проблемы со скриншотами, переходом по ссылками, скачиванием торрентов - проблемы в блокировщике рекламы AdBlock. #хорошегоДня!


Статистика раздачи
Размер:  2.69 GB   |    Зарегистрирован:  5 месяцев 5 дней   |    .torrent скачан:  35 раз   |   
Раздают:  1  
   
Загрузка...
 
Автор Сообщение

Galfimbul

avatar Galfimbul


Я ехала домой

Год выпуска: 2009
Производство: Студия "Янтарь"
Жанр: драма
Продолжительность: 00:42:00
Субтитры: нет

Режиссёр: Сергей Васильев

В ролях: Наталья Высочанская, Александр Волков, Борис Хвошнянский, Татьяна Колганова, Хельга Филиппова, Иван Безбородов, Наталья Суфьянова, Станислав Осколков

Описание: Мария мечтала о двух вещах: стать актрисой и встретить прекрасного человека. Судьба великодушно дает девушке и то, и другое. Мария стала знаменитой певицей, которая сводит с ума толпы поклонников, встретила она и свою любовь. Но счастье не было долгим: встав на пути династических интересов, она оказывается жертвой великосветских интриганов, не гнушающихся сплетнями, оговорами, недостойными инсценировками и даже обвинением в убийстве.

Жизнь становится бесконечным кошмаром: сценический триумф сменяется забвением, богатство — нищетой, любовь — малодушием и предательством избранника, а роскошь дворцов — скорбью психиатрической лечебницы. Доведенная до отчаяния, Мария горит желанием отомстить свету, толпе, бывшему возлюбленному…

Доп. информация: Записано с тв на флешку, раздаю как есть. Начала записывать с 4ой серии. Надеюсь получиться записать 7-8.

Реклама: Нет

Все раздачи сериала: http://rutracker.org/forum/tracker.php?nm=%D1%8F%20...0%BC%D0%BE%D0%B9
Качество: DVB
Формат: TS
Видео кодек: H.264
Аудио кодек: MP2
Видео: AVC 720x576 (16:9) 25fps 2656 kb/s
Аудио: MP3 48000Hz stereo 192kbps
General
ID : 1 (0x1)
Complete name : G:\Ya exala domoy 2009 DVB\06 Ya exala domoy.ts
Format : MPEG-TS
File size : 921 MiB
Duration : 42 min 55 s
Overall bit rate mode : Variable
Overall bit rate : 2 998 kb/s
Maximum Overall bit rate : 35.5 Mb/s

Video
ID : 4113 (0x1011)
Menu ID : 1 (0x1)
Format : AVC
Format/Info : Advanced Video Codec
Format profile : Main@L3
Format settings, CABAC : Yes
Format settings, ReFrames : 3 frames
Format settings, GOP : M=4, N=28
Format settings, picture struc : Frame
Codec ID : 27
Duration : 42 min 55 s
Bit rate mode : Variable
Bit rate : 2 656 kb/s
Maximum bit rate : 40.0 Mb/s
Width : 720 pixels
Height : 576 pixels
Display aspect ratio : 16:9
Frame rate : 25.000 FPS
Standard : Component
Color space : YUV
Chroma subsampling : 4:2:0
Bit depth : 8 bits
Scan type : Interlaced
Scan type, store method : Interleaved fields
Scan order : Top Field First
Bits/(Pixel*Frame) : 0.256
Stream size : 816 MiB (89%)
Color range : Limited
Color primaries : BT.601 PAL
Transfer characteristics : BT.470 System B, BT.470 System G
Matrix coefficients : BT.601

Audio
ID : 4352 (0x1100)
Menu ID : 1 (0x1)
Format : MPEG Audio
Format version : Version 1
Format profile : Layer 2
Codec ID : 4
Duration : 42 min 55 s
Bit rate mode : Constant
Bit rate : 192 kb/s
Channel(s) : 2 channels
Sampling rate : 48.0 kHz
Compression mode : Lossy
Delay relative to video : -114 ms
Stream size : 59.0 MiB (6%)


Трекер:  [ 20-Апр-2017 03:30 ]

  

Скачать .torrent

Размер .torrent файла 14 KB


Размер: 2.69 GB
Хэш (hash) релиза: 5c574c9abfe53a5692532888ba50a8d210cd1563
Подписка на обновления:

Еще никто не оставлял запись к записи скачать торрент Я ехала домой Сезон: Серии: 4-6 из 8 . Будь первым!

!Обратная связь