Скачать через торрент Воронины Сезон 19 Фильм бесплатно в хорошем качестве torrent

Скачивайте на UnionPeer.org фильмы через торрент без регистрации. Новинки кино в хорошем качестве через торрент. На UnionPeer.org можно скачать через торрент фильмы 2014 и 2015 годов. Самые новые фильмы.

Скачать торрент Воронины Сезон 19 бесплатно через .torrent фильм мультфильм сериал

Если у вас наблюдаются проблемы со скриншотами, переходом по ссылками, скачиванием торрентов - проблемы в блокировщике рекламы AdBlock. #хорошегоДня!


Статистика раздачи
Размер:  10.9 GB   |    Зарегистрирован:  7 месяцев   |    .torrent скачан:  31 раз   |   
Раздают:  1  
   
Загрузка...
 
Автор Сообщение

Galfimbul

avatar Galfimbul


Воронины / Сезон 19 / Серии 1-18 из ?? (404-421 из ???)

Год выпуска: 2017
Производство: Россия, СТС
Жанр: комедия, семейное кино
Продолжительность: 18 серий по ~ 24 минуты
Субтитры: нет

Режиссёр: Александр Жигалкин

В ролях: Георгий (Егор) Дронов, Екатерина Волкова (II), Станислав Дужников, Борис Клюев, Анна Фроловцева

Описание: В обычном доме в трехкомнатной квартире живет молодая семья: Костя, его жена Вера и их дети – пятилетняя дочка и два маленьких сына-близнеца. Костя – известный спортивный журналист. Жена Вера любит его и ведет все хозяйство, а дети не доставляют много хлопот. Гораздо больше хлопот им приносят родители Кости, которые живут напротив на той же лестничной площадке… Воронины – это история о том, что иногда родственники бывают слишком близкими.

Релиз: Shel

Сэмпл: multi-up.com

Качество: DVB
Формат: TS
Видео кодек: h264 AVC
Аудио кодек: MP2
Видео: 720x576 (1.33:1), 25 fps, Mpeg4 AVC ~3200 kbps avg, 0.30 bit/pixel
Аудио: 48 kHz, MPEG Layer 2, 2 ch, ~256.00 kbps avg
General
ID : 1 (0x1)
Format : MPEG-TS
File size : 616 MiB
Duration : 23mn 38s
Overall bit rate mode : Variable
Overall bit rate : 3 643 Kbps

Video
ID : 75 (0x4B)
Menu ID : 14 (0xE)
Format : AVC
Format/Info : Advanced Video Codec
Format profile : High@L3.0
Format settings, CABAC : Yes
Format settings, ReFrames : 3 frames
Codec ID : 27
Duration : 23mn 38s
Bit rate : 3 204 Kbps
Width : 720 pixels
Height : 576 pixels
Display aspect ratio : 4:3
Frame rate : 25.000 fps
Standard : Component
Color space : YUV
Chroma subsampling : 4:2:0
Bit depth : 8 bits
Scan type : Interlaced
Scan order : Top Field First
Bits/(Pixel*Frame) : 0.309
Stream size : 542 MiB (88%)
Color primaries : BT.601 PAL
Transfer characteristics : BT.470 System B, BT.470 System G
Matrix coefficients : BT.601
Color range : Limited

Audio
ID : 76 (0x4C)
Menu ID : 14 (0xE)
Format : MPEG Audio
Format version : Version 1
Format profile : Layer 2
Codec ID : 3
Duration : 23mn 38s
Bit rate mode : Constant
Bit rate : 256 Kbps
Channel(s) : 2 channels
Sampling rate : 48.0 KHz
Compression mode : Lossy
Delay relative to video : -120ms
Stream size : 43.3 MiB (7%)
Language : English
Как закачать отдельный файл из торрента или докачать ранее пропущенные файлы торрента.

Трекер:  [ 19-Апр-2017 22:00 ]

  

Скачать .torrent

Размер .torrent файла 57 KB


Размер: 10.9 GB
Хэш (hash) релиза: 318ec30f0303cad567dad0f770d4e9c9eac6a72e
Подписка на обновления:

Торренты, похожие на Воронины Сезон 19 скачать торрент

Форум Название Автор Размер S L Добавлен
Российские сериалы ·· Воронины / Сезон 19 / Серии 1-18 из ?? (404-421 из ???) (Александр Жигалкин) [2017, комедия, семейное кино, IPTVRip] Galfimbul 63942513825.96 GB 0 0 1492629274

22:14

19-Апр-17

Еще никто не оставлял запись к записи скачать торрент Воронины Сезон 19 . Будь первым!

!Обратная связь