Скачать через торрент Воронины Сезон 19 Фильм бесплатно в хорошем качестве torrent

Скачивайте на UnionPeer.org фильмы через торрент без регистрации. Новинки кино в хорошем качестве через торрент. На UnionPeer.org можно скачать через торрент фильмы 2014 и 2015 годов. Самые новые фильмы.

Скачать торрент Воронины Сезон 19 бесплатно через .torrent фильм мультфильм сериал

Статистика раздачи
Размер:  5.62 GB   |    Зарегистрирован:  1 месяц 7 дней   |    .torrent скачан:  28 раз   |   
Раздают:  1  
   
 
Автор Сообщение

Galfimbul

avatar Galfimbul


Воронины / Сезон 19 / Серии 1-17 из ?? (404-420 из ???)

Год выпуска: 2017
Производство: Россия, СТС
Жанр: комедия, семейное кино
Продолжительность: 17 серий по ~ 24 минуты
Субтитры: нет

Режиссёр: Александр Жигалкин

В ролях: Георгий (Егор) Дронов, Екатерина Волкова (II), Станислав Дужников, Борис Клюев, Анна Фроловцева

Описание: В обычном доме в трехкомнатной квартире живет молодая семья: Костя, его жена Вера и их дети – пятилетняя дочка и два маленьких сына-близнеца. Костя – известный спортивный журналист. Жена Вера любит его и ведет все хозяйство, а дети не доставляют много хлопот. Гораздо больше хлопот им приносят родители Кости, которые живут напротив на той же лестничной площадке… Воронины – это история о том, что иногда родственники бывают слишком близкими.

Релиз: Shel

Сэмпл: multi-up.com

Качество: IPTVRip
Формат: AVI
Видео кодек: XviD
Аудио кодек: MP3
Видео: 704x528 (1.33:1), 25 fps, XviD MPEG-4 ~1844 kbps avg, 0.20 bit/pixel
Аудио: 48 kHz, MPEG Layer 3, 2 ch, ~128.00 kbps avg
General
Format : AVI
Format/Info : Audio Video Interleave
File size : 335 MiB
Duration : 23mn 38s
Overall bit rate : 1 982 Kbps
Writing library : VirtualDub build 30080/release

Video
ID : 0
Format : MPEG-4 Visual
Format profile : Advanced Simple@L5
Format settings, BVOP : 2
Format settings, QPel : No
Format settings, GMC : No warppoints
Format settings, Matrix : Default (MPEG)
Codec ID : XVID
Codec ID/Hint : XviD
Duration : 23mn 38s
Bit rate : 1 845 Kbps
Width : 704 pixels
Height : 528 pixels
Display aspect ratio : 4:3
Frame rate : 25.000 fps
Color space : YUV
Chroma subsampling : 4:2:0
Bit depth : 8 bits
Scan type : Progressive
Compression mode : Lossy
Bits/(Pixel*Frame) : 0.198
Stream size : 312 MiB (93%)
Writing library : XviD 73

Audio
ID : 1
Format : MPEG Audio
Format version : Version 1
Format profile : Layer 3
Codec ID : 55
Codec ID/Hint : MP3
Duration : 23mn 38s
Bit rate mode : Constant
Bit rate : 128 Kbps
Channel(s) : 2 channels
Sampling rate : 48.0 KHz
Compression mode : Lossy
Stream size : 21.6 MiB (6%)
Alignment : Split accross interleaves
Interleave, duration : 40 ms (1.00 video frame)
Interleave, preload duratio : 500 ms
Как закачать отдельный файл из торрента или докачать ранее пропущенные файлы торрента.

Трекер:  [ 19-Апр-2017 08:30 ]

  

Скачать .torrent

Размер .torrent файла 31 KB


Размер: 5.62 GB
Хэш (hash) релиза: a5beedf047fa9c4e9fa566325a25fb02b9be075a
Подписка на обновления:

Еще никто не оставлял запись к записи скачать торрент Воронины Сезон 19 . Будь первым!

!Обратная связь