Скачать через торрент Какая красивая луна Tsuki ga Kirei бесплатно Аниме Все серии на русском torrent

Если у вас наблюдаются проблемы со скриншотами, переходом по ссылками, скачиванием торрентов - проблемы в блокировщике рекламы AdBlock. #хорошегоДня!


Статистика раздачи
Размер:  817 MB   |    Зарегистрирован:  5 месяцев 7 дней   |    .torrent скачан:  25 раз   |   
Раздают:  1  
   
Загрузка...
 
Автор Сообщение

Galfimbul

avatar Galfimbul


Какая красивая луна / Tsuki ga Kirei
Страна: Япония
Год выпуска: 2017 г.
Тип: TV
Жанр: Романтика, школа, повседневность
Продолжительность: 12 эп. по 25 мин
Русские субтитры: laci
Русские субтитры: Timecraft
Редактор: Scrap
Переводчик/Тайм-код: Павел Пантюхин

Режиссер: Киси Сэйдзи

Студия:

Описание: Аканэ Мизуно - участница школьной беговой команды. Она любила бегать с самого детства и состояла в команде ещё с момента поступления в среднюю школу. Её отца по работе частенько отправляют в разные районы страны, и вот его семье пришлось переехать в городок под названием Кавагоэ. Так Аканэ, будучи в третьем классе средней школы, столкнулась с переходом в новую школу. Несмотря на свой хвастливый характер дома, в школе она преображается, становясь скромной и заботливой о чувствах других.

Котаро Азуми - президент литературного клуба, он обожает книги и мечтает стать писателем. С детства Котаро был тесно связан с провинциальной жизнью и даже состоял в группе традиционной японской музыки. Он беззаботный и не особо переживает об учёбе, поэтому его оценки вряд ли можно назвать хорошими. Это аниме в полной мере раскроет характеры главных героев и их окружения, их взросление в подростковом периоде, а также расскажет нам о юношеской невинной любви, которая пройдёт через множество изменений и неопределённостей.

Качество: HDTVRip | Равка: Leopard-Raws Формат: mp4 | Тип Видео: без хардсаба
Видео: х264, 8 bits, 1280x720, 1908 kbps, 23.976 fps, (16:9)
JP - AAC, 192 kbps, 48.0 KHz, 2 ch Язык Японский
01.Spring and Hard Times
02. A Handful of Sand
Общее
Полное имя : C:\[Leopard-Raws] Tsugumomo\[Leopard-Raws] Tsugumomo - 01 RAW (BS11 1280x720 x264 AAC).mp4
Формат : MPEG-4
Профиль формата : Base Media
Идентификатор кодека : isom (isom/avc1/iso6)
Размер файла : 361 Мбайт
Продолжительность : 23 м. 59 с.
Режим общего битрейта : Переменный
Общий поток : 2104 Кбит/сек
Дата кодирования : UTC 2017-04-03 03:01:19
Дата пометки : UTC 2017-04-03 03:01:19

Видео
Идентификатор : 1
Формат : AVC
Формат/Информация : Advanced Video Codec
Профиль формата : High@L4.1
Параметр CABAC формата : Да
Параметр ReFrames формата : 4 кадра
Идентификатор кодека : avc1
Идентификатор кодека/Информация : Advanced Video Coding
Продолжительность : 23 м. 59 с.
Битрейт : 1908 Кбит/сек
Максимальный битрейт : 11,0 Мбит/сек
Ширина : 1280 пикселей
Высота : 720 пикселей
Соотношение сторон : 16:9
Режим частоты кадров : Постоянный
Частота кадров : 23,976 (24000/1001) кадра/сек
Цветовое пространство : YUV
Субдискретизация насыщенности : 4:2:0
Битовая глубина : 8 бит
Тип развёртки : Прогрессивная
Бит/(Пиксели*Кадры) : 0.086
Размер потока : 327 Мбайт (91%)
Заголовок : 264:fps=23.976@GPAC0.5.2-DEV-rev376-g5eeb74d-master
Библиотека кодирования : x264 core 129 r2245+729M 1a52e03
Настройки программы : cabac=1 / ref=4 / deblock=1:1:-1 / analyse=0x3:0x113 / me=umh / subme=9 / psy=1 / fade_compensate=0.00 / psy_rd=1.00:0.00 / mixed_ref=1 / me_range=24 / chroma_me=1 / trellis=2 / 8x8dct=1 / cqm=0 / deadzone=21,11 / fast_pskip=1 / chroma_qp_offset=-2 / threads=8 / lookahead_threads=1 / sliced_threads=0 / nr=0 / decimate=1 / interlaced=0 / bluray_compat=0 / constrained_intra=0 / fgo=0 / bframes=9 / b_pyramid=2 / b_adapt=2 / b_bias=0 / direct=1 / weightb=1 / open_gop=0 / weightp=2 / keyint=240 / keyint_min=24 / scenecut=40 / intra_refresh=0 / rc=crf / mbtree=0 / crf=18.5 / qcomp=0.72 / qpmin=0 / qpmax=69 / qpstep=4 / ip_ratio=1.40 / pb_ratio=1.30 / aq=1:0.85
Дата кодирования : UTC 2017-04-03 03:01:19
Дата пометки : UTC 2017-04-03 03:01:22
Цветовой диапазон : Limited
Основные цвета : BT.709
Характеристики трансфера : BT.709
Коэффициенты матрицы : BT.709

Аудио
Идентификатор : 2
Формат : AAC
Формат/Информация : Advanced Audio Codec
Профиль формата : LC
Идентификатор кодека : 40
Продолжительность : 23 м. 59 с.
Вид битрейта : Переменный
Битрейт : 192 Кбит/сек
Максимальный битрейт : 238 Кбит/сек
Каналы : 2 канала
Расположение каналов : Front: L R
Частота : 48,0 КГц
Частота кадров : 46,875 кадров/сек (1024 spf)
Метод сжатия : С потерями
Размер потока : 32,9 Мбайт (9%)
Язык : Japanese
Дата кодирования : UTC 2017-04-02 16:02:24
Дата пометки : UTC 2017-04-03 03:01:22


Обновите торент файл, добавлена 2я серия и субтитры о Timecraft

Трекер:  [ 17-Апр-2017 12:30 ]

  

Скачать .torrent

Размер .torrent файла 17 KB


Размер: 817 MB
Хэш (hash) релиза: 83b05a1e95877ec3a6fd75b6455d1064adfbf26c
Подписка на обновления:

Торренты, похожие на Какая красивая луна Tsuki ga Kirei скачать торрент

Форум Название Автор Размер S L Добавлен
Аниме | HD Rips ·· Tsuki ga Kirei / Какая красивая луна (Киси Сэйдзи) [TV] [1 из 12] [Без хардсаба] [JAP+SUB] [2017, комедия, школа, экшен, этти HDTVRip] [720p] Galfimbul 432556419413 MB 0 0 1491670714

19:58

8-Апр-17

Еще никто не оставлял запись к записи скачать торрент Какая красивая луна Tsuki ga Kirei . Будь первым!

!Обратная связь