Скачать через торрент Балерина Ballerina Фильм бесплатно в хорошем качестве torrent

Скачивайте на UnionPeer.org фильмы через торрент без регистрации. Новинки кино в хорошем качестве через торрент. На UnionPeer.org можно скачать через торрент фильмы 2014 и 2015 годов. Самые новые фильмы.

Скачать торрент Балерина Ballerina бесплатно через .torrent фильм мультфильм сериал

Статистика раздачи
Размер:  1.37 GB   |    Зарегистрирован:  10 дней   |    .torrent скачан:  100 раз   |   
Раздают:  7  
   
 
Автор Сообщение

Galfimbul

avatar Galfimbul


Балерина /Ballerina

Год выпуска: 2016
Страна: Франция, Канада
Жанр: мультфильм, мюзикл, комедия, приключения, семейный
Перевод: Дубляж - [iTunes]
Продолжительность: 01:29:23
Режиссер: Эрик Саммер , Эрик Уорин
В ролях: Эль Фаннинг (F?licie Milliner, озвучка), Карли Рэй Джепсен (Odette, озвучка), Мэдди Зиглер (Camille Le Haut, озвучка), Терренс Скаммелл (M?rante / Postman, озвучка), Tamir Kapelian (Rudolph / Mathurin, озвучка), Джули Ханер (R?gine Le Haut, озвучка), Джо Шеридан (Director of Opera, озвучка), Элана Дункельман (Dora / Rosita, озвучка), Шошана Спелинг (Nora, озвучка), Джэми Уотсон (Greasy Guard / Janitor, озвучка), Бронуэн Мэнтел (Mother Superior, озвучка), Мэл Брукс
Описание:
События развернутся вокруг маленькой сиротки, которая, следуя за мечтой стать балериной, приезжает в Париж в 1879 году.
Рейтинг:

Качество: HDRip
Формат: AVI
Видео: XviD, 720x304 (2.35:1), 1709 kbps, 24 fps, 0,325 bpp
Аудио: AC3 / 5.1 / 48 kHz / 384 kbps /
General
Complete name : E:BaLLeRettKa.2016.D.HDRip.14OOMB.avi
Format : AVI
Format/Info : Audio Video Interleave
File size : 1.37 GiB
Duration : 1 h 29 min
Overall bit rate : 2 189 kb/s
Writing application : VirtualDubMod 1.5.10.2 (build 2540/release)
Writing library : VirtualDubMod build 2540/release

Video
ID : 0
Format : MPEG-4 Visual
Format profile : Advanced Simple@L5
Format settings, BVOP : 2
Format settings, QPel : No
Format settings, GMC : No warppoints
Format settings, Matrix : Default (MPEG)
Codec ID : XVID
Codec ID/Hint : XviD
Duration : 1 h 29 min
Bit rate : 1 710 kb/s
Width : 720 pixels
Height : 304 pixels
Display aspect ratio : 2.35:1
Frame rate : 24.000 FPS
Color space : YUV
Chroma subsampling : 4:2:0
Bit depth : 8 bits
Scan type : Progressive
Compression mode : Lossy
Bits/(Pixel*Frame) : 0.325
Stream size : 1.07 GiB (78%)
Writing library : XviD 1.2.1 (UTC 2008-12-04)

Audio
ID : 1
Format : AC-3
Format/Info : Audio Coding 3
Mode extension : CM (complete main)
Format settings, Endianness : Big
Codec ID : 2000
Duration : 1 h 29 min
Bit rate mode : Constant
Bit rate : 384 kb/s
Channel(s) : 6 channels
Channel positions : Front: L C R, Side: L R, LFE
Sampling rate : 48.0 kHz
Frame rate : 31.250 FPS (1536 spf)
Compression mode : Lossy
Stream size : 246 MiB (18%)
Alignment : Split accross interleaves


Трекер:  [ 13-Апр-2017 22:30 ]

  

Скачать .torrent

Размер .torrent файла 14 KB


Размер: 1.37 GB
Хэш (hash) релиза: 579e696462d06a782ee4ad3652d5b96ba1913acb
Подписка на обновления:

Торренты, похожие на Балерина Ballerina скачать торрент

Форум Название Автор Размер S L Добавлен
Мультфильмы до 2016 ·· Балерина / Ballerina (Эрик Саммер / Eric Summer, Эрик Уорин / Éric Warin) [2016, Франция, Канада, мультфильм, мюзикл, комедия, приключения, семейный, BDRip 720p] Dub (iTunes) + Original Eng, Fre Galfimbul 52819710754.92 GB 5 0 1492189098

19:58

14-Апр-17

Мультфильмы до 2016 ·· Балерина / Ballerina (Эрик Саммер / Eric Summer, Эрик Уорин / Éric Warin) [2016, Мультфильм, мюзикл, комедия, приключения, семейный, BDRip] Dub Galfimbul 15625195521.46 GB 0 0 1492165670

13:27

14-Апр-17

Мультфильмы 2016-2017 (Новинки мультфильмов) ·· Балерина / Ballerina (Эрик Саммер, Эрик Уорин) [2016, мультфильм, мюзикл, приключения, семейный, BDRip] iTunes Galfimbul 15251619621.42 GB 5 0 1492114299

23:11

13-Апр-17

Мультфильмы 2016-2017 (Новинки мультфильмов) ·· Балерина / Ballerina (Эрик Саммер, Эрик Уорин) [2016, мультфильм, мюзикл, приключения, семейный, BDRip] iTunes Galfimbul 781772500746 MB 2 0 1492114293

23:11

13-Апр-17

Мультфильмы 2016-2017 (Новинки мультфильмов) ·· Балерина / Ballerina (Эрик Саммер, Эрик Уорин) [2016, мультфильм, мюзикл, приключения, семейный, CAMRip] Galfimbul 14678507521.37 GB 4 0 1485491972

07:39

27-Янв-17

Мультсериалы ·· Ангелина Балерина. История продолжается / Angelina Ballerina: The Next Steps / Сезон: 2 / Серии: 40 из 80 (Дэвис Дой / Davis Doi) [2009-2010, Детский, сказка, SATRip] Dub Galfimbul 71763027486.68 GB 0 0 1424183783

17:36

17-Фев-15

Еще никто не оставлял запись к записи скачать торрент Балерина Ballerina . Будь первым!

!Обратная связь