Скачать через торрент Филфак Серии: 1-4 из 20 Фильм бесплатно в хорошем качестве torrent

Скачивайте на UnionPeer.org фильмы через торрент без регистрации. Новинки кино в хорошем качестве через торрент. На UnionPeer.org можно скачать через торрент фильмы 2014 и 2015 годов. Самые новые фильмы.

Скачать торрент Филфак Серии: 1-4 из 20 бесплатно через .torrent фильм мультфильм сериал

Если у вас наблюдаются проблемы со скриншотами, переходом по ссылками, скачиванием торрентов - проблемы в блокировщике рекламы AdBlock. #хорошегоДня!


Статистика раздачи
Размер:  2.28 GB   |    Зарегистрирован:  3 месяца 11 дней   |    .torrent скачан:  140 раз   |   
Раздают:  1  
   
Загрузка...
 
Автор Сообщение

Galfimbul

avatar Galfimbul


Филфак

Год выпуска: 2017
Производство: Гуд Стори Медиа
Жанр: Комедия
Продолжительность: 00:23:00
Субтитры: нет
Режиссёр: Фёдор Стуков
В ролях: Денис Парамонов, Алексей Золотовицкий, Василий Поспелов, Ефим Шифрин, Александра Бортич, Алексей Литвиненко (II), Михаил Тройник, Полина Пушкарук, Александра Велескевич, Виолетта Давыдовская, Елена Коренева, Сергей Калашников, Кристина Пакарина, Руслан Щедрин
Описание: Сериал про тех, кто видит книгу!
История про трех друзей, которые оказываются в девичьем царстве — на филологическом факультете. Главный герой Миша Соломонов — наивен, романтичен и отзывчив, он пишет стихи, не умеет говорить нет и безнадежно влюблен в однокурсницу Лену. Его лучшие друзья — угрюмый ботаник Рома Бабин, которому не интересен противоположный пол и чье главное увлечение — онлайн-игра, и его полная противоположность, безрезультатно мечтающий о сексе остряк Женя Морозов, чья нелепая внешность и своеобразный юмор никак не помогают ему завоевать расположение девушек. Соперник Миши — бывший парень Лены с факультета физкультуры Боря, который из всей литературы признает только «Спорт-Экспресс».

/ Сэмпл
Релиз от:
Качество: HDTVRip 720p
Формат: MKV
Видео кодек: H.264
Аудио кодек: AC3
Видео: MPEG-4 AVC, 1280x720 (16:9), 25.000 fps, 3500 Kbps, 0.152 bits/pixel
Аудио: 48 kHz, AC3 Dolby Digital, 2 ch, 192 Kbps

Реклама: Нет
General

Complete name : Downloads\Filfak.01.2017.HDTVRip.(720p).Nikolspup\Filfak.01.(01.seriya).2017.HDTVRip.(720p).Nikolspup.mkv
Format : Matroska
Format version : Version 4 / Version 2
File size : 606 MiB
Duration : 22mn 55s
Overall bit rate : 3 693 Kbps
Encoded date : UTC 2017-04-11 06:26:31
Writing application : mkvmerge v7.8.0 ('River Man') 32bit built on Apr 3 2015 12:11:22
Writing library : libebml v1.3.1 + libmatroska v1.4.2
DURATION : 00:22:55.616000000
NUMBER_OF_FRAMES : 42988
NUMBER_OF_BYTES : 33014784
_STATISTICS_WRITING_APP : mkvmerge v7.8.0 ('River Man') 32bit built on Apr 3 2015 12:11:22
_STATISTICS_WRITING_DATE_UTC : 2017-04-11 06:26:31
_STATISTICS_TAGS : BPS DURATION NUMBER_OF_FRAMES NUMBER_OF_BYTES
Video #1
ID : 1
Format : AVC
Format/Info : Advanced Video Codec
Format profile : High@L4.1
Format settings, CABAC : Yes
Format settings, ReFrames : 9 frames
Codec ID : V_MPEG4/ISO/AVC
Duration : 22mn 55s
Bit rate : 3 500 Kbps
Width : 1 280 pixels
Height : 720 pixels
Display aspect ratio : 16:9
Frame rate mode : Constant
Frame rate : 25.000 fps
Color space : YUV
Chroma subsampling : 4:2:0
Bit depth : 8 bits
Scan type : Progressive
Bits/(Pixel*Frame) : 0.152
Stream size : 562 MiB (93%)
Writing library : x264 core 146 r2538 121396c
Encoding settings : cabac=1 / ref=9 / deblock=1:-3:-3 / analyse=0x3:0x113 / me=umh / subme=11 / psy=1 / psy_rd=1.00:0.20 / mixed_ref=1 / me_range=32 / chroma_me=1 / trellis=2 / 8x8dct=1 / cqm=0 / deadzone=21,11 / fast_pskip=1 / chroma_qp_offset=-3 / threads=6 / lookahead_threads=1 / sliced_threads=0 / nr=0 / decimate=0 / interlaced=0 / bluray_compat=0 / constrained_intra=0 / bframes=12 / b_pyramid=2 / b_adapt=2 / b_bias=0 / direct=3 / weightb=1 / open_gop=0 / weightp=2 / keyint=250 / keyint_min=25 / scenecut=40 / intra_refresh=0 / rc_lookahead=60 / rc=2pass / mbtree=1 / bitrate=3500 / ratetol=1.0 / qcomp=0.60 / qpmin=0 / qpmax=69 / qpstep=4 / cplxblur=20.0 / qblur=0.5 / vbv_maxrate=14000 / vbv_bufsize=14000 / nal_hrd=none / filler=0 / ip_ratio=1.40 / aq=3:1.00
Default : No
Forced : No
Color primaries : BT.709
Transfer characteristics : BT.709
Matrix coefficients : BT.709
Color range : Limited
DURATION : 00:22:55.600000000
NUMBER_OF_FRAMES : 34390
NUMBER_OF_BYTES : 601731289
_STATISTICS_WRITING_APP : mkvmerge v7.8.0 ('River Man') 32bit built on Apr 3 2015 12:11:22
_STATISTICS_WRITING_DATE_UTC : 2017-04-11 06:26:31
_STATISTICS_TAGS : BPS DURATION NUMBER_OF_FRAMES NUMBER_OF_BYTES
Audio #2
ID : 2
Format : AC-3
Format/Info : Audio Coding 3
Mode extension : CM (complete main)
Format settings, Endianness : Big
Codec ID : A_AC3
Duration : 22mn 55s
Bit rate mode : Constant
Bit rate : 192 Kbps
Channel(s) : 2 channels
Channel positions : Front: L R
Sampling rate : 48.0 KHz
Bit depth : 16 bits
Compression mode : Lossy
Stream size : 31.5 MiB (5%)
Default : Yes
Forced : No


Трекер:  [ 12-Апр-2017 02:00 ]

  

Скачать .torrent

Размер .torrent файла 12 KB


Размер: 2.28 GB
Хэш (hash) релиза: 1752271d6baa843fc9836dbf8ac80103e5e4e919
Подписка на обновления:

Торренты, похожие на Филфак Серии: 1-4 из 20 скачать торрент

Форум Название Автор Размер S L Добавлен
Российские сериалы ·· Филфак / Сезон: 1 / Серии: 1-4 из 20 (Фёдор Стуков) [2017, Комедия, HDTV 1080i] Galfimbul 47312989924.41 GB 0 0 1491950521

01:42

12-Апр-17

Еще никто не оставлял запись к записи скачать торрент Филфак Серии: 1-4 из 20 . Будь первым!

!Обратная связь