Скачать через торрент Возрождающие Re:Creators бесплатно Аниме Все серии на русском torrent

Если у вас наблюдаются проблемы со скриншотами, переходом по ссылками, скачиванием торрентов - проблемы в блокировщике рекламы AdBlock. #хорошегоДня!


 
Автор Сообщение

Galfimbul

avatar Galfimbul


Возрождающие / Re:Creators

Страна: Япония
Год выпуска: 2017 г.
Жанр: приключения, фэнтези
Тип: TV
Продолжительность: 22 эп. по ~25 мин.
Режиссер: Аоки Эй
Студия: Troyca
Русские субтитры: SovetRomantica
Перевод: Бульбазавр
Редактура: SYMRAK
Сверка: Alex Drake
Описание: Человечество, подобно своему творцу, всегда стремилось к созиданию. Каждый день люди создают что-то новое, стараясь этим сделать свою жизнь и жизни других легче, а также попутно поглаживая своё самолюбие и делая свою личность значимее. Но чем самолюбивее человек, тем больше ему хочется обладать безграничной властью над тем, что создано людьми. Они подчиняют других себе, упиваясь своей значимостью и, порой, переходя все возможные границы. Конечно, такое поведение мало кому придётся по нраву, кроме них самих.

Но есть и другой, более мирный способ иметь возможность делать со своими творениями всё, что душе угодно. Такой привилегией обладают писатели. На страницах своих произведений они рождают персонажей, решают, как их творения будут жить, и убивают их по своей прихоти. Писатели в таком случае подобны богам, и судьбы придуманных ими людей целиком и полностью в их руках. Но представим на минутку, что все герои, появившиеся от росчерка пера, обрели жизнь на самом деле, только в отдельном от нас мире…
Качество: HDTVRip
Тип релиза: Без хардсаба
Формат видео: MP4
Наличие линковки: Нет
Релиз/Автор рипа: Leopard-Raws
Видео: x264 (8 bit), 1280x720, ~2815 Kbps, 23.976 fps
Аудио JAP: AAC, 48000 Hz, ~192 Kbps, 2 ch
Субтитры RUS: ASS, внешним файлом; Перевод: SovetRomantica
GeneralComplete name : D:\Users\Shiro\Desktop\Re-Creators\[Leopard-Raws] Re-Creators - 01 RAW (BS11 1280x720 x264 AAC).mp4Format : MPEG-4Format profile : Base MediaCodec ID : isomFile size : 516 MiBDuration : 23mn 59sOverall bit rate mode : VariableOverall bit rate : 3 009 KbpsEncoded date : UTC 2017-04-09 03:58:53Tagged date : UTC 2017-04-09 03:58:53

VideoID : 1Format : AVCFormat/Info : Advanced Video CodecFormat profile : High@L4.1Format settings, CABAC : YesFormat settings, ReFrames : 4 framesCodec ID : avc1Codec ID/Info : Advanced Video CodingDuration : 23mn 59sBit rate : 2 815 KbpsMaximum bit rate : 23.8 MbpsWidth : 1 280 pixelsHeight : 720 pixelsDisplay aspect ratio : 16:9Frame rate mode : ConstantFrame rate : 23.976 fpsColor space : YUVChroma subsampling : 4:2:0Bit depth : 8 bitsScan type : ProgressiveBits/(Pixel*Frame) : 0.127Stream size : 483 MiB (94%)Title : 264:fps=23.976@GPAC0.5.2-DEV-rev376-g5eeb74d-masterWriting library : x264 core 129 r2245+729M 1a52e03Encoding settings : cabac=1 / ref=4 / deblock=1:1:-1 / analyse=0x3:0x113 / me=umh / subme=9 / psy=1 / fade_compensate=0.00 / psy_rd=1.00:0.00 / mixed_ref=1 / me_range=24 / chroma_me=1 / trellis=2 / 8x8dct=1 / cqm=0 / deadzone=21,11 / fast_pskip=1 / chroma_qp_offset=-2 / threads=8 / lookahead_threads=1 / sliced_threads=0 / nr=0 / decimate=1 / interlaced=0 / bluray_compat=0 / constrained_intra=0 / fgo=0 / bframes=9 / b_pyramid=2 / b_adapt=2 / b_bias=0 / direct=1 / weightb=1 / open_gop=0 / weightp=2 / keyint=240 / keyint_min=24 / scenecut=40 / intra_refresh=0 / rc=crf / mbtree=0 / crf=17.5 / qcomp=0.72 / qpmin=0 / qpmax=69 / qpstep=4 / ip_ratio=1.40 / pb_ratio=1.30 / aq=1:0.85Encoded date : UTC 2017-04-09 03:58:53Tagged date : UTC 2017-04-09 03:59:13Color primaries : BT.709Transfer characteristics : BT.709Matrix coefficients : BT.709

AudioID : 2Format : AACFormat/Info : Advanced Audio CodecFormat profile : LCCodec ID : 40Duration : 23mn 59sBit rate mode : VariableBit rate : 192 KbpsMaximum bit rate : 236 KbpsChannel count : 2 channelsChannel positions : Front: L RSampling rate : 48.0 KHzCompression mode : LossyDelay relative to video : 125msStream size : 32.6 MiB (6%)Language : JapaneseEncoded date : UTC 2017-04-08 17:31:07Tagged date : UTC 2017-04-09 03:59:13
Episode 1: I Will Remember Everything That Happened to Me.

Еще никто не оставлял запись к записи скачать торрент Возрождающие Re:Creators . Будь первым!

!Обратная связь