Скачать через торрент Филфак Серии: 1-20 из 20 Фильм бесплатно в хорошем качестве torrent

Скачивайте на UnionPeer.org фильмы через торрент без регистрации. Новинки кино в хорошем качестве через торрент. На UnionPeer.org можно скачать через торрент фильмы 2014 и 2015 годов. Самые новые фильмы.

Скачать торрент Филфак Серии: 1-20 из 20 бесплатно через .torrent фильм мультфильм сериал

Если у вас наблюдаются проблемы со скриншотами, переходом по ссылками, скачиванием торрентов - проблемы в блокировщике рекламы AdBlock. #хорошегоДня!


Статистика раздачи
Размер:  5.88 GB   |    Зарегистрирован:  4 месяца 23 дня   |    .torrent скачан:  867 раз   |   
Раздают:  1  
   
Загрузка...
 
Автор Сообщение

Galfimbul

avatar Galfimbul


Филфак

Год выпуска: 2017
Производство: Россия, Good Story media
Жанр: Комедия
Продолжительность: ~ 00:25:00
Субтитры: нет

Режиссёр: Фёдор Стуков

В ролях: Александра Бортич, Денис Парамонов, Алексей Золотовицкий, Михаил Тройник, Сергей Калашников, Антонина Чижикова, Вероника Вернадская, Ефим Шифрин, Василий Поспелов, Виолетта Давыдовская, Полина Пушкарук, Алексей Литвиненко, Елена Коренева

Описание: Главные герои сериала «Филфак» — трое молодых людей, которым удается поступить на филологический факультет, 98% студентов которого — девушки. Пикантность ситуации придает тот факт, что все трое — девственники. Оказавшись в ситуации, о которой, казалось бы, в их положении можно только мечтать, герои чувствуют себя неловко и постоянно попадают в нелепые истории.

Релиз:

Реклама: Нет

Качество: HDTVRip
Формат: AVI
Видео кодек: XviD
Аудио кодек: AC3
Видео: 720x400 (1.80:1), 25 fps, XviD build 73 ~1644 kbps avg, 0.23 bit/pixel
Аудио: 48 kHz, AC3 Dolby Digital, 2/0 (L,R) ch, ~192 kbps
Раздача ведётся путём добавления новых серий, при каждом добавлении создаётся новый торрент. Чтобы начать докачку новой серии, пользователям необходимо сделать следующее:

- Остановить скачивание.
- Удалить старый торрент у себя из клиента (старые серии удалять не надо).
- Скачать новый торрент и запустить его у себя в клиенте вместо старого, при этом указать клиенту путь в старую папку куда и должно происходить скачивание новых серий.

Ваш клиент при этом должен произвести хеширование (проверку) старой папки (если не производит сам - помогите ему сделать это), и будет докачивать только те серии которых у вас ещё нет. Старые серии при этом не удаляются, а продолжают раздаваться!
Если вы уже удалили старые серии, то предотвратить повторную закачку старых серий можно, отжав галочку в соответствующих местах при запуске нового торрента. По возможности, желательно не удалять старые серии как можно дольше, чтобы релизер не столько продолжал раздавать старые серии, а смог сконцентрироваться на новых.
ОбщееПолное имя : D:\Торрент\Filfak.2017.HDTVRip.Files-x\01.Filfak.2017.HDTVRip.Files-x.aviФормат : AVIФормат/Информация : Audio Video InterleaveРазмер файла : 301 МбайтПродолжительность : 22 м. 48 с.Общий поток : 1846 Кбит/секПрограмма кодирования : VirtualDubMod 1.5.10.3 | www.virtualdub-fr.org || (build 2550/release)Библиотека кодирования : VirtualDubMod build 2550/release

ВидеоИдентификатор : 0Формат : MPEG-4 VisualПрофиль формата : Advanced Simple@L5Параметр BVOP формата : 1Параметр QPel формата : НетПараметр GMC формата : Без точки переходаПараметр матрицы формата : ВыборочнаяИдентификатор кодека : XVIDИдентификатор кодека/Подсказка : XviDПродолжительность : 22 м. 48 с.Битрейт : 1645 Кбит/секШирина : 720 пикселейВысота : 400 пикселейСоотношение сторон : 16:9Частота кадров : 25,000 кадров/секЦветовое пространство : YUVСубдискретизация насыщенности : 4:2:0Битовая глубина : 8 битТип развёртки : ПрогрессивнаяМетод сжатия : С потерямиБит/(Пиксели*Кадры) : 0.228Размер потока : 268 Мбайт (89%)Библиотека кодирования : XviD 73

АудиоИдентификатор : 1Формат : AC-3Формат/Информация : Audio Coding 3Расширение режима : CM (complete main)Параметр Endianness формата : BigИдентификатор кодека : 2000Продолжительность : 22 м. 48 с.Вид битрейта : ПостоянныйБитрейт : 192 Кбит/секКаналы : 2 каналаРасположение каналов : Front: L RЧастота : 48,0 КГцЧастота кадров : 31,250 кадров/сек (1536 spf)Битовая глубина : 16 битМетод сжатия : С потерямиРазмер потока : 31,3 Мбайт (10%)Выравнивание : Разделение по промежуткамПродолжительность промежутка : 40 мс. (1,00 видеокадр)Время предзагрузки промежутка : 500 мс.



Трекер:  [ 29-Апр-2017 11:07 ]

  

Скачать .torrent

Размер .torrent файла 31 KB


Размер: 5.88 GB
Хэш (hash) релиза: 831db526ae5c770f73001f344e82b9771fbdcbbd
Подписка на обновления:

Торренты, похожие на Филфак Серии: 1-20 из 20 скачать торрент

Форум Название Автор Размер S L Добавлен
Российские сериалы ·· Филфак / Серии: 1-4 из 20 (Фёдор Стуков) [2017, Комедия, HDTVRip 720p] Galfimbul 24460688432.28 GB 0 0 1491952368

02:12

12-Апр-17

Российские сериалы ·· Филфак / Сезон: 1 / Серии: 1-4 из 20 (Фёдор Стуков) [2017, Комедия, HDTV 1080i] Galfimbul 47312989924.41 GB 0 0 1491950521

01:42

12-Апр-17

bot

Раздача обновлена!
Перекачайте торрент-файл.

bot

Раздача обновлена!
Перекачайте торрент-файл.

bot

Раздача обновлена!
Перекачайте торрент-файл.

bot

Раздача обновлена!
Перекачайте торрент-файл.

bot

Раздача обновлена!
Перекачайте торрент-файл.

bot

Раздача обновлена!
Перекачайте торрент-файл.

bot

Раздача обновлена!
Перекачайте торрент-файл.

bot

Раздача обновлена!
Перекачайте торрент-файл.

Хотите добавить комментарий к записи скачать торрент Филфак Серии: 1-20 из 20

!Обратная связь