Скачать через торрент Остров Сокровищ Takarajima бесплатно Аниме Все серии на русском torrent

Если у вас наблюдаются проблемы со скриншотами, переходом по ссылками, скачиванием торрентов - проблемы в блокировщике рекламы AdBlock. #хорошегоДня!


Статистика раздачи
Размер:  3.55 GB   |    Зарегистрирован:  5 месяцев 16 дней   |    .torrent скачан:  29 раз   |   
Раздают:  1  
   
Загрузка...
 
Автор Сообщение

Galfimbul

avatar Galfimbul


Остров Сокровищ / Takarajima / Treasure Island / 宝島

Страна: Япония
Год выпуска: 1978
Жанр:Приключения, драма, мистика, кодомо (детский)
Тип:TV
Продолжительность: 26 эпизодов по ~25 минут
Автор оригинала: Роберт Л. Стивенсон
Режиссер: Дедзаки Осаму
Студия:
Перевод: Gerale; Редактура: Komugi-chan
Озвучивание: Закадровое, двухголосое, (муж., жен) Sad_Kit & Milirina[Anything Group]

Работа со звуком: Sad_Kit
Описание:
Аниме адаптация романа Роберта Льюиса Стивенсона, "Остров Сокровищ".
Всё как по нотам, жил себе Джим Хокинс, помогал своей матери в гостинице. Потом появился мрачный постоялец, с большим сундуком и охочий до выпивки. Затем Черный Пёс и Слепой пью, а там и карта острова сокровищ при известных обстоятельствах попадает в руки к Джиму, на чем его спокойная жизнь заканчивается (хотя она закончилась чуть раньше, с приходом Билли Бонса), и начинаются приключения вместе с с доктором Ливси, эсквайром Трэлони, ну и конечно же Джоном Сильвером. Несмотря на то, что сюжет известен и экранизирован множество раз, получаешь от просмотра настоящее удовольствие.
World Art | Anidb | My Anime List
Качество: BDRip
Тип релиза: без хардсаба
Формат видео: MKV
Наличие линковки: Нет
Релиз/Автор рипа: gerdhanse
<div style="margin-left: 2em" class="post-ul">Видео: x264 (8 bits), 960x720, 1700 kbps, 23.976 fps
Аудио 1: 48.0 kHz, AAC, (Front: L R), 2 ch ~ 192 Kbps avg Язык: Русский (в составе контейнера); Озвучка: Закадровая, двухголосая, (жен., муж.) Milirina & Sad_Kit [Anything Group]
Аудио 2: 48.0 kHz, AAC, (Front: L R), 2 ch ~ 192 Kbps avg Язык: Японский (в составе контейнера)
Субтитры 1: В составе контейнера (Полные); Язык: Русский; Перевод: Gerale; Редактура: Komugi-chan</div>
<div class="sp-wrap">
<div class="sp-head folded">MediaInfo</div>
<div class="sp-body">

GeneralUnique ID : 209253999595982648587344163705748625440 (0x9D6CDAB8ADAFEECF8489E90607069820)Complete name : [ARRU] Takarajima (BDRip 720p x264 AAC) [Anything Group]\[ARRU] Takarajima [01] [Anything Group].mkvFormat : MatroskaFormat version : Version 4 / Version 2File size : 363 MiBDuration : 24 min 8 sOverall bit rate : 2 102 kb/sMovie name : Die Schatzinsel [еR?е?][Takarajima] Ep01 Der geheimnisvolle Fremde [720p][gerdhanse]Encoded date : UTC 2017-04-06 04:31:57Writing application : mkvmerge v9.1.0 ('Little Earthquakes') 64bitWriting library : libebml v1.3.3 + libmatroska v1.4.4Attachments : Buxton_Sketch_Regular.ttf

VideoID : 1Format : AVCFormat/Info : Advanced Video CodecFormat profile : High@L5.1Format settings, CABAC : YesFormat settings, ReFrames : 5 framesCodec ID : V_MPEG4/ISO/AVCDuration : 24 min 8 sBit rate : 1 700 kb/sWidth : 960 pixelsHeight : 720 pixelsDisplay aspect ratio : 4:3Frame rate mode : ConstantFrame rate : 23.976 (24000/1001) FPSColor space : YUVChroma subsampling : 4:2:0Bit depth : 8 bitsScan type : ProgressiveBits/(Pixel*Frame) : 0.103Stream size : 294 MiB (81%)Title : Ep01 Der geheimnisvolle Fremde [gerdhanse]Writing library : x264 core 125 r2200 999b753Encoding settings : cabac=1 / ref=6 / deblock=1:0:0 / analyse=0x3:0x133 / me=umh / subme=10 / psy=1 / psy_rd=1.00:0.00 / mixed_ref=1 / me_range=24 / chroma_me=1 / trellis=2 / 8x8dct=1 / cqm=1 / deadzone=21,11 / fast_pskip=1 / chroma_qp_offset=-2 / threads=3 / lookahead_threads=1 / sliced_threads=0 / nr=0 / decimate=1 / interlaced=0 / bluray_compat=1 / constrained_intra=0 / bframes=3 / b_pyramid=1 / b_adapt=2 / b_bias=0 / direct=3 / weightb=1 / open_gop=1 / weightp=1 / keyint=240 / keyint_min=1 / scenecut=40 / intra_refresh=0 / rc_lookahead=60 / rc=2pass / mbtree=1 / bitrate=1700 / ratetol=1.0 / qcomp=0.60 / qpmin=3 / qpmax=69 / qpstep=4 / cplxblur=20.0 / qblur=0.5 / ip_ratio=1.40 / aq=1:1.00Language : JapaneseDefault : YesForced : No

Audio #1ID : 2Format : AACFormat/Info : Advanced Audio CodecFormat profile : LCCodec ID : A_AACDuration : 24 min 8 sBit rate : 197 kb/sChannel(s) : 2 channelsChannel positions : Front: L RSampling rate : 48.0 kHzFrame rate : 46.875 FPS (1024 spf)Compression mode : LossyStream size : 34.0 MiB (9%)Title : [Sad_Kit & Milirina]Language : RussianDefault : YesForced : Yes

Audio #2ID : 3Format : AACFormat/Info : Advanced Audio CodecFormat profile : LCCodec ID : A_AACDuration : 24 min 8 sBit rate : 199 kb/sChannel(s) : 2 channelsChannel positions : Front: L RSampling rate : 48.0 kHzFrame rate : 46.875 FPS (1024 spf)Compression mode : LossyStream size : 34.4 MiB (9%)Title : Japanese Audio (AAC)Language : JapaneseDefault : NoForced : No

TextID : 4Format : ASSCodec ID : S_TEXT/ASSCodec ID/Info : Advanced Sub Station AlphaDuration : 24 min 8 sBit rate : 112 b/sCount of elements : 297Compression mode : LosslessStream size : 19.9 KiB (0%)Title : [Gerale, Komugi-chan] (Полные)Default : NoForced : No

Menu00:00:00.000 : en:Avant00:01:20.000 : en:Opening00:02:50.667 : en:Part A00:12:05.535 : en:Part B00:22:25.535 : en:Ending00:23:36.535 : en:Preview
[ARRU] Takarajima (BDRip 720p x264 AAC) [Anything Group]\[ARRU] Takarajima [01] [Anything Group].mkv

Track #1: video (Ep01 Der geheimnisvolle Fremde [gerdhanse]) lang: jpn (2) codc: V_MPEG4/ISO/AVC -> H264/AVC (22) reso: 960x720 -> Unknown (aka not common) fram: 23.976 fps rate: 1701 kbps (1701.13) dura: 00:24:09 (1448.7) size: 293.78 MB (308053291) Track #2: audio ([Sad_Kit & Milirina]) lang: rus -> Russian (15) codc: A_AAC -> AAC (9) chan: 2 -> Stereo samp: 48000 Hz rate: 198 kbps (197.66) dura: 00:24:09 (1448.75) size: 34.14 MB (35795339) Track #3: audio (Japanese Audio (AAC)) lang: jpn -> Japanese (2) codc: A_AAC -> AAC (9) chan: 2 -> Stereo samp: 48000 Hz rate: 200 kbps (199.82) dura: 00:24:09 (1448.75) size: 34.51 MB (36186825) Track #4: subtitles ([Gerale, Komugi-chan] (Полные)) lang: und -> Unknown (1) type: S_TEXT/ASS -> ASS (5) size: 19.95 KB (20426) Sizes: (check sanity) disk: 363.08 MB (380719205) atts: 248.98 KB (254952) trac: 362.45 MB (380055881) [based on track size] bitr: 362.43 MB (380032779) [based on bitrate] tdif: 398.80 KB (408372) 0.10% bdif: 421.36 KB (431473) 0.11%OK 0.34.00 - 080318 OK (MediaInfoLib - v0.7.5.2 CVS)
</div>
</div>
01. Появился страшный Билли!
02. Кто он, Чёрный Пёс?!
03. Отвергнутые опоры
04. Карта Острова сокровищ у меня!
05. Ещё увидимся, мам!
06. Друг или враг? Джон Сильвер
07. Ненавижу старое жареное мясо
08. Корабль-Призрак зовёт меня!
09. Похищение в Порту Рабов
10. Подслушал из бочки с яблоками!

11. Что происходит на Острове Сокровищ?!
12. Он здесь! Монстр из джунглей!
13. Колокольчик старика
14. Такова жизнь! Союзники, враги
15. Капитуляция в стиле Сильвера
16. Мы терпим кораблекрушение?!
17. Не недооценивайте меня, я не ребёнок
18. Хандс же должен быть мёртвым
19. Это конец? Бессмертный Сильвер
20. В этот раз - распятие! Лонг Джон
21. Сокровище приятно, только когда ты жив!
22. Пират, умирая, оставляет лишь скелет
23. Летающий человек! Паппи Чайка
24. Сундук мертвеца засияет в полнолуние?!
25. До свидания, морской бриз
26. Флинт больше не может летать
...4792218 - Наличие озвучки
...4795132 - Наличие озвучки


Трекер:  [ 09-Апр-2017 20:30 ]

  

Скачать .torrent

Размер .torrent файла 19 KB


Размер: 3.55 GB
Хэш (hash) релиза: 84d3d52a5b0a57ba4b9e7b37335f46eb55b2e9e0
Подписка на обновления:

Торренты, похожие на Остров Сокровищ Takarajima скачать торрент

Форум Название Автор Размер S L Добавлен
Аниме | HD Rips ·· Остров Сокровищ / Takarajima / Treasure Island [TV] [1—26 из 26] [Без хардсаба] [JAP, SUB] [1978 г., Приключения, драма, мистика, детский, BDRemux] [1080p] Galfimbul 10101062148194.07 GB 0 0 1461149825

13:57

20-Апр-16

Аниме | HD Rips ·· Остров Сокровищ / Takarajima / Treasure Island [TV] [1-15 из 26] [Без хардсаба] [JAP, SUB] [1978 г., Приключения, драма, мистика, детский, BDRemux] [1080p] Galfimbul 5828475205854.28 GB 0 0 1443922390

04:33

4-Окт-15

Аниме | Rips ·· Остров Сокровищ / Takarajima / Treasure Island [TV] [1-11 из 26] [Без хардсаба] [JAP, SUB] [1978 г., Приключения, драма, мистика, кодомо., DVDRip] Galfimbul 28341395432.64 GB 0 0 1409054826

15:07

26-Авг-14

Аниме | HD Rips ·· Остров Сокровищ (ТВ) / Takarajima / Treasure Island (Осаму Дэдзаки) [TV] [26 из 26] [Без хардсаба] [JAP+SUB] [1978 г., Приключения, драма, мистика, детский, BDRip] [720p] Galfimbul 89719101028.36 GB 0 0 1461973180

02:39

30-Апр-16

Аниме | HD Rips ·· Остров Сокровищ (ТВ)/ Takarajima / Treasure Island [Осаму Дэдзаки] [1-17 из 26] [Без хардсаба] [JAP+SUB] [1978 г., Приключения, драма, мистика, детский, BDRip] [720p] Galfimbul 58725210935.47 GB 0 0 1444859011

00:43

15-Окт-15

Еще никто не оставлял запись к записи скачать торрент Остров Сокровищ Takarajima . Будь первым!

!Обратная связь