: Afro Samurai: Resurrection torrent

, , - AdBlock. #!


7.46 GB   |    :  6 1    |    .torrent :  86    |   
1  
   
...
 

L


: / Afro Samurai: Resurrection

: 2009
:
:
: 01:40:32
:
  • ( ) 2x2
  • ( )
  • ( ) MCA
:
  • X-Ray Fansubs
  • Adamant
:

: . , , , , , Β, , , ,

: , . ?! ! . ! N1 !
:
BDRip, MCA, conservator
: BDRip 720p
: MKV
: x264
: AC3
: 1920x1080 23.98fps, 8 675 Kbps
:
  • 2x2: Dolby AC3, 48 kHz, 192 kbps, stereo
  • : Dolby AC3, 48 kHz, 384 kbps, stereo, 6ch
  • MCA: Dolby AC3, 48 kHz, 755 kbps, stereo, 6ch
  • : Dolby AC3, 48 kHz, 640 kbps, stereo, 6ch
:


:

General
Unique ID : 193822056222856438555511250142369733046 (0x91D0C52B9485C221891173200ADCD9B6)
Complete name : S:\Afro Samurai. Resurrection (Director's Cut) (2009)(BDRip)(2x2)\Afro Samurai. Resurrection (Director's Cut) (2009)(BDRip)(2x2)(1080p)(x264).mkv
Format : Matroska
File size : 7.46 GiB
Duration : 1h 40mn
Overall bit rate : 10.6 Mbps
Movie name : Afro_Samurai_Resurrection_(2009)_[720p,BluRay,x264]_-_THORA
Encoded date : UTC 2011-08-08 21:13:05
Writing application : mkvmerge v4.0.0 ('The Stars were mine') Jun 6 2010 16:18:42
Writing library : libebml v1.0.0 + libmatroska v1.0.0

Video
ID : 1
Format : AVC
Format/Info : Advanced Video Codec
Format profile : High@L4.1
Format settings, CABAC : Yes
Format settings, ReFrames : 10 frames
Format settings, GOP : M=1, N=5
Codec ID : V_MPEG4/ISO/AVC
Duration : 1h 40mn
Bit rate : 8 675 Kbps
Width : 1 920 pixels
Height : 1 080 pixels
Display aspect ratio : 16:9
Frame rate : 23.976 fps
Color space : YUV
Chroma subsampling : 4:2:0
Bit depth : 8 bits
Scan type : Progressive
Bits/(Pixel*Frame) : 0.174
Stream size : 5.93 GiB (79%)
Title : Afro Samurai: Resurrection
Writing library : x264 core 65 r1066M 045ae40
Encoding settings : cabac=1 / ref=10 / deblock=1:3:3 / analyse=0x3:0x133 / me=umh / subme=9 / psy_rd=0.8:0.0 / mixed_ref=1 / me_range=24 / chroma_me=1 / trellis=0 / 8x8dct=1 / cqm=0 / deadzone=21,11 / chroma_qp_offset=-4 / threads=6 / nr=0 / decimate=1 / mbaff=0 / bframes=6 / b_pyramid=1 / b_adapt=2 / b_bias=0 / direct=3 / wpredb=1 / keyint=250 / keyint_min=25 / scenecut=40(pre) / rc=2pass / bitrate=8675 / ratetol=1.0 / qcomp=0.60 / qpmin=10 / qpmax=30 / qpstep=4 / cplxblur=20.0 / qblur=0.5 / vbv_maxrate=40000 / vbv_bufsize=40000 / ip_ratio=1.40 / pb_ratio=1.30 / aq=1:0.70 / zones=9030,10071,b=1.3/10805,14385,b=1.3/57604,64652,b=1.4
Language : English

Audio #1
ID : 2
Format : AC-3
Format/Info : Audio Coding 3
Mode extension : CM (complete main)
Codec ID : A_AC3
Duration : 1h 40mn
Bit rate mode : Constant
Bit rate : 192 Kbps
Channel(s) : 2 channels
Channel positions : Front: L R
Sampling rate : 48.0 KHz
Bit depth : 16 bits
Compression mode : Lossy
Stream size : 138 MiB (2%)
Title : [2x2]
Language : Russian

Audio #2
ID : 3
Format : AC-3
Format/Info : Audio Coding 3
Mode extension : CM (complete main)
Codec ID : A_AC3
Duration : 1h 40mn
Bit rate mode : Constant
Bit rate : 384 Kbps
Channel(s) : 6 channels
Channel positions : Front: L C R, Side: L R, LFE
Sampling rate : 48.0 KHz
Bit depth : 16 bits
Compression mode : Lossy
Stream size : 276 MiB (4%)
Title : [Gavrilov]
Language : Russian

Audio #3
ID : 4
Format : DTS
Format/Info : Digital Theater Systems
Codec ID : A_DTS
Duration : 1h 40mn
Bit rate mode : Constant
Bit rate : 755 Kbps
Channel(s) : 6 channels
Channel positions : Front: L C R, Side: L R, LFE
Sampling rate : 48.0 KHz
Bit depth : 24 bits
Compression mode : Lossy
Stream size : 543 MiB (7%)
Title : [MCA]
Language : Russian

Audio #4
ID : 5
Format : AC-3
Format/Info : Audio Coding 3
Mode extension : CM (complete main)
Codec ID : A_AC3
Duration : 1h 40mn
Bit rate mode : Constant
Bit rate : 640 Kbps
Channel(s) : 6 channels
Channel positions : Front: L C R, Side: L R, LFE
Sampling rate : 48.0 KHz
Bit depth : 16 bits
Compression mode : Lossy
Stream size : 460 MiB (6%)
Title : [Original]
Language : English

Text #1
ID : 6
Format : ASS
Codec ID : S_TEXT/ASS
Codec ID/Info : Advanced Sub Station Alpha
Compression mode : Lossless
Title : ASS (X-Ray Fansubs)
Language : Russian

Text #2
ID : 7
Format : ASS
Codec ID : S_TEXT/ASS
Codec ID/Info : Advanced Sub Station Alpha
Compression mode : Lossless
Title : ASS (Adamant)
Language : Russian


 ·  , , FAQ-
:  [ 09--2011 07:34 ]

  

.torrent

.torrent 38 KB


: 7.46 GB
(hash) : 4a66e9ef1f8cf14105a6c052059b85a8e83d49c0
:
··
...

Rutkit

- ?

: Afro Samurai: Resurrection

!