Скачать через торрент Консультант Серии: 1-10 из 10 Фильм бесплатно в хорошем качестве torrent

Скачивайте на UnionPeer.org фильмы через торрент без регистрации. Новинки кино в хорошем качестве через торрент. На UnionPeer.org можно скачать через торрент фильмы 2014 и 2015 годов. Самые новые фильмы.

Скачать торрент Консультант Серии: 1-10 из 10 бесплатно через .torrent фильм мультфильм сериал

Статистика раздачи
Размер:  12.59 GB   |    Зарегистрирован:  14 дней   |    .torrent скачан:  172 раза   |   
Раздают:  1  
   
 
Автор Сообщение

Galfimbul

avatar Galfimbul


Консультант
Год выпуска: 2017
Производство: Киностудия Кит по заказу НТВ
Жанр: Детектив, триллер
Продолжительность: 00:48:00
Субтитры: нет
Режиссёр: Алексей Рудаков
В ролях: Кирилл Кяро, Максим Дрозд, Светлана Иванова, Елена Великанова, Анастасия Чистякова, Иван Рудаков, Екатерина Вуличенко, Дмитрий Поднозов, Наталья Ткаченко, Владимир Матвеев, Фёдор Лавров, Алексей Байдаков, Сергей Барковский, Владимир Богданов, Юрий Ицков, Александр Большаков, Андрей Мокеев, Олег Фёдоров, Илья Борисов, Сергей Кузнецов, Павел Григорьев, Олег Куликович, Даниил Кокин, Наталья Щукина, Константин Демидов, Екатерина Унтилова, Ольга Онищенко, Наталья Парашкина
Описание: 1990-й год. В провинциальном городе идет суд над страшным маньяком, который терроризировал область зверскими убийствами в течение долгих лет. Приехавший из области эксперт-психолог Вячеслав Широков возмущает общественность неожиданным заявлением. По его мнению судят не того! Психологический портрет преступника, составленный Широковым по материалам дела, не соответствует психологическому портрету подсудимого. Вынесение приговора откладывают. Этим Широков наживает себе врагов в лице всего населения города, вступает в прямой конфликт со следователем Олегом Брагиным, который потратил десять лет жизни на поимку преступника и уверен в своей правоте. Широков и Брагин – антиподы, но вынуждены сотрудничать. Теорию Широкова о «психологическом портрете преступника» никто не воспринимает всерьез, пока в городе не происходит новое страшное убийство.
/ Сэмпл
Релиз от:
Качество: HDTVRip 720p
Формат: MKV
Видео кодек: H.264
Аудио кодек: AC3
Видео: MPEG-4 AVC, 1280x720 (16:9), 25.000 fps, 3500 Kbps, 0.152 bits/pixel
Аудио: 48 kHz, AC3 Dolby Digital, 2 ch, 192 Kbps

Реклама: Нет
General

Complete name : Downloads\Konsultant.2016.HDTVRip.(720p).Nikolspup\Konsultant.(01.seriya).2016.HDTVRip.(720p).Nikolspup.mkv
Format : Matroska
Format version : Version 4 / Version 2
File size : 1.24 GiB
Duration : 48mn 6s
Overall bit rate : 3 684 Kbps
Encoded date : UTC 2017-04-04 06:37:57
Writing application : mkvmerge v7.8.0 ('River Man') 32bit built on Apr 3 2015 12:11:22
Writing library : libebml v1.3.1 + libmatroska v1.4.2
DURATION : 00:48:06.720000000
NUMBER_OF_FRAMES : 90210
NUMBER_OF_BYTES : 69281280
_STATISTICS_WRITING_APP : mkvmerge v7.8.0 ('River Man') 32bit built on Apr 3 2015 12:11:22
_STATISTICS_WRITING_DATE_UTC : 2017-04-04 06:37:57
_STATISTICS_TAGS : BPS DURATION NUMBER_OF_FRAMES NUMBER_OF_BYTES
Video #1
ID : 1
Format : AVC
Format/Info : Advanced Video Codec
Format profile : High@L4.1
Format settings, CABAC : Yes
Format settings, ReFrames : 9 frames
Codec ID : V_MPEG4/ISO/AVC
Duration : 48mn 6s
Bit rate : 3 500 Kbps
Width : 1 280 pixels
Height : 720 pixels
Display aspect ratio : 16:9
Frame rate mode : Constant
Frame rate : 25.000 fps
Color space : YUV
Chroma subsampling : 4:2:0
Bit depth : 8 bits
Scan type : Progressive
Bits/(Pixel*Frame) : 0.152
Stream size : 1.15 GiB (93%)
Writing library : x264 core 146 r2538 121396c
Encoding settings : cabac=1 / ref=9 / deblock=1:-3:-3 / analyse=0x3:0x113 / me=umh / subme=11 / psy=1 / psy_rd=1.00:0.20 / mixed_ref=1 / me_range=32 / chroma_me=1 / trellis=2 / 8x8dct=1 / cqm=0 / deadzone=21,11 / fast_pskip=1 / chroma_qp_offset=-3 / threads=6 / lookahead_threads=1 / sliced_threads=0 / nr=0 / decimate=0 / interlaced=0 / bluray_compat=0 / constrained_intra=0 / bframes=12 / b_pyramid=2 / b_adapt=2 / b_bias=0 / direct=3 / weightb=1 / open_gop=0 / weightp=2 / keyint=250 / keyint_min=25 / scenecut=40 / intra_refresh=0 / rc_lookahead=60 / rc=2pass / mbtree=1 / bitrate=3500 / ratetol=1.0 / qcomp=0.60 / qpmin=0 / qpmax=69 / qpstep=4 / cplxblur=20.0 / qblur=0.5 / vbv_maxrate=14000 / vbv_bufsize=14000 / nal_hrd=none / filler=0 / ip_ratio=1.40 / aq=3:1.00
Default : No
Forced : No
Color primaries : BT.709
Transfer characteristics : BT.709
Matrix coefficients : BT.709
Color range : Limited
DURATION : 00:48:06.720000000
NUMBER_OF_FRAMES : 72168
NUMBER_OF_BYTES : 1259407906
_STATISTICS_WRITING_APP : mkvmerge v7.8.0 ('River Man') 32bit built on Apr 3 2015 12:11:22
_STATISTICS_WRITING_DATE_UTC : 2017-04-04 06:37:57
_STATISTICS_TAGS : BPS DURATION NUMBER_OF_FRAMES NUMBER_OF_BYTES
Audio #2
ID : 2
Format : AC-3
Format/Info : Audio Coding 3
Mode extension : CM (complete main)
Format settings, Endianness : Big
Codec ID : A_AC3
Duration : 48mn 6s
Bit rate mode : Constant
Bit rate : 192 Kbps
Channel(s) : 2 channels
Channel positions : Front: L R
Sampling rate : 48.0 KHz
Bit depth : 16 bits
Compression mode : Lossy
Stream size : 66.1 MiB (5%)
Language : Russian
Default : Yes
Forced : Yes


Трекер:  [ 09-Апр-2017 00:00 ]

  

Скачать .torrent

Размер .torrent файла 18 KB


Размер: 12.59 GB
Хэш (hash) релиза: e3d58d161a6ed10e4c83b4018bf4bbefd7063442
Подписка на обновления:

Торренты, похожие на Консультант Серии: 1-10 из 10 скачать торрент

Форум Название Автор Размер S L Добавлен
Российские сериалы ·· Консультант / Серии: 1-2 из 10 (Алексей Рудаков) [2017, Детектив, триллер, HDTVRip] Galfimbul 12561571841.17 GB 0 0 1491288199

09:43

4-Апр-17

Российские сериалы ·· Консультант / Серии: 1-2 из 10 (Алексей Рудаков) [2016, детектив,драма, SATRip-AVC] Galfimbul 11620815101.08 GB 0 0 1491245065

21:44

3-Апр-17

Еще никто не оставлял запись к записи скачать торрент Консультант Серии: 1-10 из 10 . Будь первым!

!Обратная связь