Скачать через торрент Габриэль бросает школу Gabriel Dropout бесплатно Аниме Все серии на русском torrent

Если у вас наблюдаются проблемы со скриншотами, переходом по ссылками, скачиванием торрентов - проблемы в блокировщике рекламы AdBlock. #хорошегоДня!


Статистика раздачи
Размер:  167 MB   |    Зарегистрирован:  5 месяцев 12 дней   |    .torrent скачан:  18 раз   |   
Раздают:  1  
   
Загрузка...
 
Автор Сообщение

Galfimbul

avatar Galfimbul



Габриэль бросает школу / Gabriel Dropout / ガヴリールドロップアウト
Год выпуска: 2017 г.
Страна: Япония
Жанр: Сверхъестественное, Школа, Сёнен, Комедия
Тип: OVA
Продолжительность: 1 эп. по 15 мин.
Режиссер: Ота Масахико
Студия: Dogakobo
Перевод:

Русские субтитры от Nina_Latina & Krevetka
Описание:
Белокурый ангелочек Габриэль Тэнма с говорящей фамилией Уайт недавно окончила академию ангелов на небесах. На выпускном её хвалят учителя и говорят, что девушка-ангел обладает выдающимися талантами, которые нечасто доводится повстречать на небесах. Было принято решение, что лучшие выпускницы академии отправляются на Землю, чтобы поступить в земные школы, научиться быть частью человеческого общества и узнать много нового о жизнях людей. Только обретя эти знания, они смогут стать впоследствии настоящими ангелами.

Вызов принят, и Габриэль попадает на Землю, чтобы справиться со своей важной миссией. Но там юного и невинного ангелочка поджидает истинное создание дьявола, поглотившее умы немалой части человечества – онлайн-игры. Многому учили выпускниц академии на небесах, но такому соблазну Габриэль Уайт противостоять не сумела. Так и начались её беспечные будни за экраном ноутбука, прогулы уроков и прокачка персонажей. Её безуспешно пытается привести в чувства, как ни странно, демоница Виньетт Цукиносэ Эйприл, которая похожа на ангела побольше, чем наша героиня. К чему приведёт странная дружба ангелов и демонов, и сможет ли Габриэль найти в себе силы перестать быть хикки и завершить своё предназначение?
Информационные ссылки: World Art || AniDB || MAL
Качество: BDRip | Рип: [Ohys-Raws]
Тип релиза: Без хардсаба
Формат видео: MP4
Наличие линковки: Нет
Видео: AVC, 1280x720, ~1421 kbps, 23.976 fps [8 bit]
Аудио:
1. Japanese AAC, 48.0 KHz, ~199 kbps, 2 ch;
Субтитры:

Russian: ASS, внешние;
General Format : MPEG-4 Format profile : Base Media Codec ID : isom File size : 167 MiB Duration : 14mn 23s Overall bit rate mode : Variable Overall bit rate : 1 624 Kbps Encoded date : UTC 2017-04-07 09:12:00 Tagged date : UTC 2017-04-07 09:12:00 Video #1 ID : 1 Format : AVC Format/Info : Advanced Video Codec Format profile : Main@L4.1 Format settings, CABAC : Yes Format settings, ReFrames : 4 frames Codec ID : avc1 Codec ID/Info : Advanced Video Coding Duration : 14mn 22s Bit rate : 1 421 Kbps Maximum bit rate : 8 364 Kbps Width : 1 280 pixels Height : 720 pixels Display aspect ratio : 16:9 Frame rate mode : Constant Frame rate : 23.976 fps Color space : YUV Chroma subsampling : 4:2:0 Bit depth : 8 bits Scan type : Progressive Bits/(Pixel*Frame) : 0.064 Stream size : 146 MiB (88%) Writing library : x264 core 148 r2762+56 6284cf3 t_mod_Custom [8-bit@all X86_64] Encoding settings : cabac=1 / ref=3 / deblock=1:0:0 / analyse=0x1:0x131 / me=umh / subme=9 / psy=1 / fade_compensate=0.00 / psy_rd=1.00:0.00 / mixed_ref=1 / me_range=32 / chroma_me=1 / trellis=1 / 8x8dct=0 / cqm=0 / deadzone=21,11 / fast_pskip=1 / chroma_qp_offset=-2 / threads=12 / lookahead_threads=1 / sliced_threads=0 / nr=0 / decimate=1 / interlaced=0 / bluray_compat=0 / constrained_intra=0 / fgo=0 / bframes=3 / b_pyramid=2 / b_adapt=1 / b_bias=0 / direct=1 / weightb=1 / open_gop=0 / weightp=2 / keyint=240 / keyint_min=1 / scenecut=40 / intra_refresh=0 / rc_lookahead=40 / rc=crf / mbtree=1 / crf=18.0000 / qcomp=0.60 / qpmin=0:0:0 / qpmax=69:69:69 / qpstep=4 / ip_ratio=1.40 / aq=1:1.00 / aq-sensitivity=10.00 / aq-factor=1.00:1.00:1.00 / aq2=0 / aq3=0 Encoded date : UTC 2017-04-07 09:12:00 Tagged date : UTC 2017-04-07 09:12:01 Audio #2 ID : 2 Format : AAC Format/Info : Advanced Audio Codec Format profile : LC Codec ID : 40 Duration : 14mn 23s Bit rate mode : Variable Bit rate : 199 Kbps Maximum bit rate : 252 Kbps Channel(s) : 2 channels Channel positions : Front: L R Sampling rate : 48.0 KHz Compression mode : Lossy Stream size : 20.4 MiB (12%) Language : Japanese Encoded date : UTC 2017-04-07 09:11:09 Tagged date : UTC 2017-04-07 09:12:01

01. Спецвыпуск на источниках: Демонический план по осквернению чистоты ангела


Трекер:  [ 07-Апр-2017 17:30 ]

  

Скачать .torrent

Размер .torrent файла 13 KB


Размер: 167 MB
Хэш (hash) релиза: 95a3c46ef5f4f992374f3ec3330a91f3403930fe
Подписка на обновления:

Торренты, похожие на Габриэль бросает школу Gabriel Dropout скачать торрент

Форум Название Автор Размер S L Добавлен
Аниме | HD Rips ·· Габриэль бросает школу / Gabriel Dropout [OVA] [2 из 2] [Без хардсаба] [JAP, SUB] & [1 из 2] [RUS(ext)] [2017, Сверхъестественное, Школа, Сёнен, Комедия, BDRip] [720p] Galfimbul 397761616379 MB 0 0 1497448903

17:01

14-Июн-17

Аниме | HD Rips ·· Габриэль бросает школу / Gabriel Dropout (Ота Масахико) [TV+Special] [12+0 из 12+2] [без хардсаба] [JAP+SUB] [2017, комедия, школа, сёнэн, BDRemux] [1080p] Galfimbul 8806507015482.02 GB 0 0 1497393072

01:31

14-Июн-17

Аниме | HD Rips ·· Габриэль бросает школу / Gabriel Dropout [TV+Special] [8+1 из 12+2] [Без хардсаба] [JAP+SUB] [2017, комедия, школа, сёнэн, BDRip] [1080p] Galfimbul 107221749149.99 GB 0 0 1496965628

02:47

9-Июн-17

Аниме | Rips ·· Габриэль бросает школу / Gabriel Dropout [TV] [12 из 12] [Без хардсаба] [RUS(ext), JAP, SUB] [2017, Сверхъестественное, Школа, Сёнен, Комедия, HDTVRip] [720p] Galfimbul 59617256465.55 GB 0 0 1496964810

02:33

9-Июн-17

Аниме | HD Rips ·· Габриэль бросает школу / Gabriel Dropout [OVA] [1 из 2] [Без хардсаба] [RUS(ext), JAP, SUB] [2017, Сверхъестественное, Школа, Сёнен, Комедия, BDRip] [720p] Galfimbul 195961344187 MB 0 0 1496165090

20:24

30-Май-17

Аниме | HD Rips ·· Габриэль бросает школу / Gabriel Dropout [TV+Special] [1+0 из 12+2] [без хардсаба] [JAP+SUB] [2017, комедия, школа, сёнэн, BDRip] [1080p] Galfimbul 11170274581.04 GB 0 0 1496078549

20:22

29-Май-17

Аниме | HD Rips ·· Габриэль бросает школу / Gabriel Dropout (Ота Масахико) [TV] [1-4+0 из 12+1] [без хардсаба] [JAP+SUB] [2017, комедия, школа, сёнэн, BDRemux] [1080p] Galfimbul 2736645879325.49 GB 0 0 1492985192

01:06

24-Апр-17

Аниме | HD Rips ·· Габриэль бросает школу / Gabriel Dropout [OVA] [1 из 1] [Без хардсаба] [JAP, SUB] [2017, Сверхъестественное, Школа, Сёнен, Комедия, WEBRip] [720p] Galfimbul 143022237136 MB 0 0 1490702342

14:59

28-Мар-17

Аниме | Rips ·· Габриэль бросает школу / Gabriel Dropout [TV] [01-08 из 12] [JAP, SUB] & [01-07 из 12] [RUS(ext)] [Без хардсаба] [2017, Сверхъестественное, Школа, Сёнен, Комедия, HDTVRip] [720p] Galfimbul 37252353923.47 GB 0 0 1488303253

20:34

28-Фев-17

Аниме | Rips ·· Габриэль бросает школу / Gabriel Dropout [TV] [01-02 из 12] [Без хардсаба] [RUS(ext), JAP, SUB] [2017, Сверхъестественное, Школа, Сёнен, Комедия, HDTVRip] [720p] Galfimbul 906565996865 MB 0 0 1485107006

20:43

22-Янв-17

Аниме | HD Rips ·· Габриэль бросает школу / Gabriel Dropout (Ота Масахико) [TV] [1 из 12] [Без хардсаба] [JAP+SUB] [2017, комедия, школа, сёнэн, HDTVRip] [720p] Galfimbul 388087830370 MB 0 0 1484062314

18:31

10-Янв-17

Аниме | HD Rips ·· Габриэль бросает школу / Gabriel Dropout (Ота Масахико) [TV+Special] [12+2 из 12+2] [без хардсаба] [JAP+SUB] [2017, комедия, BDRip] [720p] Galfimbul 82294029797.66 GB 0 0 1499029327

00:02

3-Июл-17

Аниме | Rips ·· Габриэль бросает школу / Gabriel Dropout (Ота Масахико) [TV+Special] [12+2 из 12+2] [без хардсаба] [RUS(ext), JAP+SUB] [2017, комедия, BDRip] [720p] Galfimbul 91170892218.49 GB 0 0 1499029319

00:01

3-Июл-17

Аниме | Rips ·· Отступница Габриэль (ТВ) / Gabriel Dropout / Габриэль Бросает Школу [TV+Special] [12+2 из 12+2] [Без хардсаба] [RUS(ext), JAP, SUB] [2017, комедия, BDRip] [1080p] Galfimbul 1518257582714.14 GB 0 0 1502265756

11:02

9-Авг-17

Еще никто не оставлял запись к записи скачать торрент Габриэль бросает школу Gabriel Dropout . Будь первым!

!Обратная связь