Скачать через торрент Защитники Фильм бесплатно в хорошем качестве torrent

Скачивайте на UnionPeer.org фильмы через торрент без регистрации. Новинки кино в хорошем качестве через торрент. На UnionPeer.org можно скачать через торрент фильмы 2014 и 2015 годов. Самые новые фильмы.

Скачать торрент Защитники бесплатно через .torrent фильм мультфильм сериал

Статистика раздачи
Размер:  3.05 GB   |    Зарегистрирован:  19 дней   |    .torrent скачан:  839 раз   |   
Раздают:  10  
   
 
Автор Сообщение

Galfimbul

avatar Galfimbul


Защитники

Год выпуска: 2017
Страна: Россия
Жанр: фантастика, фэнтези, боевик, приключения
Перевод: Не требуется (Русский) [iTunes]
Субтитры: Отсутствуют
Продолжительность: 01:29:04
Режиссер: Сарик Андреасян
В ролях: Антон Пампушный (Арсус), Санжар Мади (Хан), Себастьян Сисак (Лер), Алина Ланина (Ксения), Станислав Ширин (Август Куратов), Валерия Шкирандо (Елена Латина), Вячеслав Разбегаев (генерал-майор Николай Долгов), Александр Семенов (пилот), Владимир Бутенко (боец ФСО), Мила Максимова (Варвара Рогачёва), Игорь Маслов (министр обороны РФ), Дмитрий Савьяненко (докладчик)
Описание:
Во времена Холодной войны секретная организация «Патриот» создала отряд супергероев, в который вошли участники из различных советских республик. Долгие годы героям приходилось скрывать свою сущность, однако в тяжелые для страны времена они вновь берутся за дело.
Рейтинг:
Качество: WEB-DL 1080p
Формат: MKV
Видео: AVC, 1908x796 (2.40:1), 4426 kbps, 23,976 fps, 0,122 bpp
Аудио: русский / AC3 / 5.1 / 48 kHz / 384 kbps / |Оригинал|
Навигация по главам: есть
Релиз от:
General
Unique ID : 211627429231499649444364458702600882788 (0x9F35F5D64A5E6513B72B2ADB6FE34A64)
Complete name : E:Zashchitniki.2017.1080p.WEB-DL.Rus.HDCLUB.mkv
Format : Matroska
Format version : Version 2
File size : 3.05 GiB
Duration : 1 h 29 min
Overall bit rate : 4 908 kb/s
Movie name : Zashchitniki (2017) - Release for HDCLUB
Encoded date : UTC 2017-04-06 18:16:34
Writing application : mkvmerge v3.4.0 ('Rapunzel') built on May 15 2010 09:38:20
Writing library : libebml v0.8.0 + libmatroska v0.9.0

Video
ID : 1
Format : AVC
Format/Info : Advanced Video Codec
Format profile : High@L4
Format settings, CABAC : Yes
Format settings, ReFrames : 5 frames
Codec ID : V_MPEG4/ISO/AVC
Duration : 1 h 29 min
Bit rate : 4 426 kb/s
Width : 1 908 pixels
Height : 796 pixels
Display aspect ratio : 2.40:1
Frame rate mode : Constant
Frame rate : 23.976 (24000/1001) FPS
Color space : YUV
Chroma subsampling : 4:2:0
Bit depth : 8 bits
Scan type : Progressive
Bits/(Pixel*Frame) : 0.122
Stream size : 2.75 GiB (90%)
Title : Zashchitniki (2017) - Release for HDCLUB
Language : Russian
Default : Yes
Forced : No
Color range : Limited
Color primaries : BT.709
Transfer characteristics : BT.709
Matrix coefficients : BT.709

Audio
ID : 2
Format : AC-3
Format/Info : Audio Coding 3
Mode extension : CM (complete main)
Format settings, Endianness : Big
Codec ID : A_AC3
Duration : 1 h 29 min
Bit rate mode : Constant
Bit rate : 384 kb/s
Channel(s) : 6 channels
Channel positions : Front: L C R, Side: L R, LFE
Sampling rate : 48.0 kHz
Frame rate : 31.250 FPS (1536 spf)
Compression mode : Lossy
Stream size : 245 MiB (8%)
Title : AC3 5.1 @ 384 kbps
Language : Russian
Default : Yes
Forced : No

Menu
00:00:00.000 : en:1
00:04:04.000 : en:2
00:14:55.000 : en:3
00:26:28.000 : en:4
00:37:32.000 : en:5
00:49:11.000 : en:6
01:00:32.000 : en:7
01:12:11.000 : en:8
01:22:33.000 : en:9


Трекер:  [ 06-Апр-2017 22:30 ]

  

Скачать .torrent

Размер .torrent файла 15 KB


Размер: 3.05 GB
Хэш (hash) релиза: c9c43d62a3ba94e4a28326ee4ad68c460898d711
Подписка на обновления:

Торренты, похожие на Защитники скачать торрент

Форум Название Автор Размер S L Добавлен
Российские фильмы 2016-2017 (Новинки русского кино) ·%· Защитники (2017) BDRip от HQCLUB | Лицензия Galfimbul 15594926081.45 GB 0 0 1493154640

00:10

26-Апр-17

Российские фильмы до 2016 ·· Защитники (Сарик Андреасян) [2017, Фантастика, фэнтези, боевик, приключения, BDRip-AVC, AVC] Galfimbul 27297380072.54 GB 2 0 1492944387

13:46

23-Апр-17

Российские фильмы до 2016 ·· Защитники (Сарик Андреасян) [2017, Россия, фантастика, фэнтези, боевик, приключения, BDRip 1080p] + Original Rus Galfimbul 84174139907.84 GB 2 0 1492851448

11:57

22-Апр-17

Российские фильмы до 2016 ·· Защитники (Сарик Андреасян) [2017, Россия, фантастика, фэнтези, боевик, приключения, BDRip 720p] + Original Rus Galfimbul 47112172644.39 GB 3 0 1492851441

11:57

22-Апр-17

Российские фильмы до 2016 ·· Защитники (Сарик Андреасян) [2017, фантастика, фэнтези, боевик, приключения, BDRip] Galfimbul 15681638401.46 GB 2 0 1492765553

12:05

21-Апр-17

Российские фильмы до 2016 ·· Защитники (Сарик Андреасян) [2017, Россия, фантастика, фэнтези, боевик, приключения, Blu-ray disc 1080p] (RUS) + Original Rus Galfimbul 1838028481217.12 GB 0 0 1492760985

10:49

21-Апр-17

Российские фильмы 2016-2017 (Новинки русского кино) ·· Защитники (Сарик Андреасян) [2016, фантастика, фэнтези, боевик, приключения, BDRip] Лицензия Galfimbul 15681638401.46 GB 6 0 1492758689

10:11

21-Апр-17

Российские фильмы 2016-2017 (Новинки русского кино) ·· Защитники (Сарик Андреасян) [2016, фантастика, фэнтези, боевик, приключения, HDRip] Лицензия Galfimbul 14684753921.37 GB 2 0 1492756775

09:39

21-Апр-17

Российские фильмы 2016-2017 (Новинки русского кино) ·· Защитники (Сарик Андреасян) [2016, фантастика, фэнтези, боевик, приключения, Blu-Ray 1080р] Лицензия Galfimbul 1838028481217.12 GB 0 0 1492742392

05:39

21-Апр-17

Российские фильмы до 2016 ·· Защитники (Сарик Андреасян) [2016, фантастика, фэнтези, боевик, приключения, WEB-DLRip] Galfimbul 15671500801.46 GB 4 0 1491620466

06:01

8-Апр-17

Российские фильмы до 2016 ·· Защитники (Сарик Андреасян) [2016, фантастика, фэнтези, боевик, WEB-DLRip-AVC] Galfimbul 14871184031.38 GB 0 0 1491582769

19:32

7-Апр-17

Российские фильмы 2016-2017 (Новинки русского кино) ·· Защитники (Сарик Андреасян) [2017, фантастика, фэнтези, боевик, приключения, WEB-DLRip] iTunes Galfimbul 14677626881.37 GB 6 0 1491507654

22:40

6-Апр-17

Российские фильмы 2016-2017 (Новинки русского кино) ·· Защитники (Сарик Андреасян) [2017, фантастика, фэнтези, боевик, приключения, WEB-DL 1080p] iTunes Galfimbul 32786672973.05 GB 7 0 1491507647

22:40

6-Апр-17

Российские фильмы 2016-2017 (Новинки русского кино) ·· Защитники (Сарик Андреасян) [2017, фантастика, фэнтези, боевик, приключения, CAMRip] Galfimbul 14670151681.37 GB 4 0 1487875499

21:44

23-Фев-17

Мультсериалы ·· Вольтрон: Легендарный защитник / Voltron: Legendary Defender / Сезон: 1-2 / Серии: 1-12 из 25 (Хоаким Дос Сантос / Joaquim Dos Santos) [2016-2017, США, мультфильм, фантастика, приключения, WEBRip 1080p] Rus Sub Galfimbul 1320430839012.3 GB 0 0 1485216116

03:01

24-Янв-17

Зарубежные фильмы до 2016 ·· Защитник / Concussion (Питер Ландесман / Peter Landesman) [2015, Великобритания, Австралия, США, драма, биография, спорт, BDRip 1080p] DUB (Blu-ray) + DVO (Паровоз Продакшн) + MVO (ColdFilm) + 4x Sub (Rus, Eng) + Original Eng Galfimbul 1420873579913.23 GB 0 0 1471602963

13:36

19-Авг-16

Мультсериалы ·· Вольтрон: Легендарный защитник / Voltron: Legendary Defender / Сезон: 1 / Серии: 01-11 из 11 (Хоаким Дос Сантос / Joaquim Dos Santos) [2016, США, мультфильм, фантастика, приключения, WEBRip] AVO + Rus Sub Galfimbul 36270846733.38 GB 0 0 1469385801

21:43

24-Июл-16

Зарубежные фильмы до 2016 ·· Защитник / Concussion (Питер Ландесман / Peter Landesman) [2015, Великобритания, Австралия, США, драма, биография, спорт, BDRip-AVC] Dub + Sub (rus) Galfimbul 15647674011.46 GB 0 0 1469103099

15:11

21-Июл-16

Зарубежные фильмы до 2016 ·· Защитник / Concussion (Питер Ландесман / Peter Landesman) [2015, Великобритания, Австралия, США, драма, биография, спорт, BDRip-AVC] Dub + Original (eng) + Sub (rus, ukr, eng) Galfimbul 23438265512.18 GB 0 0 1469103076

15:11

21-Июл-16

Еще никто не оставлял запись к записи скачать торрент Защитники . Будь первым!

!Обратная связь