Скачать через торрент музыку Явление The Apparition бесплатно без регистрации torrent

Если у вас наблюдаются проблемы со скриншотами, переходом по ссылками, скачиванием торрентов - проблемы в блокировщике рекламы AdBlock. #хорошегоДня!


Статистика раздачи
Размер:  279 MB   |    Зарегистрирован:  5 месяцев 23 дня   |    .torrent скачан:  28 раз   |   
Раздают:  1  
   
Загрузка...
 
Автор Сообщение

Galfimbul

avatar Galfimbul


Явление / The Apparition

Жанр: Score
Композитор: tomandandy

Год выпуска диска: 2012
Страна-производитель диска: США
Издатель (лейбл): Varèse Sarabande
Номер по каталогу: 302 067 162 2

Аудиокодек: FLAC (*.flac)
Тип рипа: tracks+.cue
Битрейт аудио: lossless

Продолжительность: 00:43:34
Источник: what.cd
Наличие сканов в содержимом раздачи: да

Треклист:
01. Palmdale
02. Email Attachment
03. In Tents
04. Backyard Sound
05. Broken Camera
06. Kid Scare
07. Kelly Watches Video
08. Alone In The House
09. Hotel
10. On The Ceiling
11. Placing Trasmitters
12. Scary Laundry
13. Trapping The Apparition
14. Aftermath
15. Safe House
16. Kelly Escapes
17. Apparition Main Titles
Exact Audio Copy V1.0 beta 3 from 29. August 2011

EAC extraction logfile from 28. January 2013, 23:11

tomandandy / The Apparition (Original Motion Picture Soundtrack)

Used drive : PLEXTOR DVDR PX-760A Adapter: 0 ID: 1

Read mode : SecureUtilize accurate stream : YesDefeat audio cache : YesMake use of C2 pointers : No

Read offset correction : 30Overread into Lead-In and Lead-Out : YesFill up missing offset samples with silence : YesDelete leading and trailing silent blocks : NoNull samples used in CRC calculations : YesUsed interface : Installed external ASPI interfaceGap handling : Appended to previous track

Used output format : User Defined EncoderSelected bitrate : 896 kBit/sQuality : HighAdd ID3 tag : NoCommand line compressor : C:\Program Files (x86)\Exact Audio Copy\Flac\flac.exeAdditional command line options : -8 -V -T "ARTIST=%artist%" -T "TITLE=%title%" -T "ALBUM=%albumtitle%" -T "DATE=%year%" -T "TRACKNUMBER=%tracknr%" -T "GENRE=%genre%" -T "COMMENT=ripped by DrStandBy" -T "COMPOSER=%composer%" %source%

TOC of the extracted CD

Track | Start | Length | Start sector | End sector --------------------------------------------------------- 1 | 0:00.00 | 4:18.67 | 0 | 19416 2 | 4:18.67 | 5:30.69 | 19417 | 44235 3 | 9:49.61 | 0:56.44 | 44236 | 48479 4 | 10:46.30 | 2:53.45 | 48480 | 61499 5 | 13:40.00 | 3:04.58 | 61500 | 75357 6 | 16:44.58 | 1:52.63 | 75358 | 83820 7 | 18:37.46 | 1:45.58 | 83821 | 91753 8 | 20:23.29 | 2:41.33 | 91754 | 103861 9 | 23:04.62 | 0:58.37 | 103862 | 108248 10 | 24:03.24 | 1:52.57 | 108249 | 116705 11 | 25:56.06 | 1:18.51 | 116706 | 122606 12 | 27:14.57 | 2:24.36 | 122607 | 133442 13 | 29:39.18 | 1:40.50 | 133443 | 140992 14 | 31:19.68 | 2:10.60 | 140993 | 150802 15 | 33:30.53 | 4:57.27 | 150803 | 173104 16 | 38:28.05 | 2:01.58 | 173105 | 182237 17 | 40:29.63 | 3:05.02 | 182238 | 196114

Track 1

Filename E:\New Age\tomandandy\2012 - The Apparition (Varese Sarabande ‎#302 067 162 2)\01. tomandandy - Palmdale.wav

Pre-gap length 0:00:02.00

Peak level 94.4 % Extraction speed 2.2 X Track quality 100.0 % Test CRC 0F7CAC74 Copy CRC 0F7CAC74 Track not present in AccurateRip database Copy OK

Track 2

Filename E:\New Age\tomandandy\2012 - The Apparition (Varese Sarabande ‎#302 067 162 2)\02. tomandandy - Email Attachment.wav

Pre-gap length 0:00:01.00

Peak level 94.4 % Extraction speed 2.2 X Track quality 100.0 % Test CRC 950FA640 Copy CRC 950FA640 Track not present in AccurateRip database Copy OK

Track 3

Filename E:\New Age\tomandandy\2012 - The Apparition (Varese Sarabande ‎#302 067 162 2)\03. tomandandy - In Tents.wav

Pre-gap length 0:00:01.00

Peak level 94.4 % Extraction speed 1.5 X Track quality 100.0 % Test CRC D1094CFA Copy CRC D1094CFA Track not present in AccurateRip database Copy OK

Track 4

Filename E:\New Age\tomandandy\2012 - The Apparition (Varese Sarabande ‎#302 067 162 2)\04. tomandandy - Backyard Sound.wav

Pre-gap length 0:00:01.00

Peak level 97.6 % Extraction speed 1.3 X Track quality 99.9 % Test CRC 5CA00F75 Copy CRC 5CA00F75 Track not present in AccurateRip database Copy OK

Track 5

Filename E:\New Age\tomandandy\2012 - The Apparition (Varese Sarabande ‎#302 067 162 2)\05. tomandandy - Broken Camera.wav

Pre-gap length 0:00:02.04

Peak level 95.7 % Extraction speed 2.1 X Track quality 100.0 % Test CRC 1BA8FB53 Copy CRC 1BA8FB53 Track not present in AccurateRip database Copy OK

Track 6

Filename E:\New Age\tomandandy\2012 - The Apparition (Varese Sarabande ‎#302 067 162 2)\06. tomandandy - Kid Scare.wav

Peak level 94.5 % Extraction speed 1.9 X Track quality 100.0 % Test CRC 4633A826 Copy CRC 4633A826 Track not present in AccurateRip database Copy OK

Track 7

Filename E:\New Age\tomandandy\2012 - The Apparition (Varese Sarabande ‎#302 067 162 2)\07. tomandandy - Kelly Watches Video.wav

Pre-gap length 0:00:01.00

Peak level 94.4 % Extraction speed 1.8 X Track quality 100.0 % Test CRC 8BCA7DE6 Copy CRC 8BCA7DE6 Track not present in AccurateRip database Copy OK

Track 8

Filename E:\New Age\tomandandy\2012 - The Apparition (Varese Sarabande ‎#302 067 162 2)\08. tomandandy - Alone In The House.wav

Pre-gap length 0:00:02.00

Peak level 98.0 % Extraction speed 2.0 X Track quality 100.0 % Test CRC 8F87E70A Copy CRC 8F87E70A Track not present in AccurateRip database Copy OK

Track 9

Filename E:\New Age\tomandandy\2012 - The Apparition (Varese Sarabande ‎#302 067 162 2)\09. tomandandy - Hotel.wav

Pre-gap length 0:00:00.74

Peak level 49.8 % Extraction speed 1.5 X Track quality 100.0 % Test CRC 9C851F05 Copy CRC 9C851F05 Track not present in AccurateRip database Copy OK

Track 10

Filename E:\New Age\tomandandy\2012 - The Apparition (Varese Sarabande ‎#302 067 162 2)\10. tomandandy - On The Ceiling.wav

Pre-gap length 0:00:01.00

Peak level 94.4 % Extraction speed 1.9 X Track quality 100.0 % Test CRC 2710AF22 Copy CRC 2710AF22 Track not present in AccurateRip database Copy OK

Track 11

Filename E:\New Age\tomandandy\2012 - The Apparition (Varese Sarabande ‎#302 067 162 2)\11. tomandandy - Placing Trasmitters.wav

Pre-gap length 0:00:02.00

Peak level 94.4 % Extraction speed 0.8 X Track quality 99.8 % Test CRC F3ADF519 Copy CRC F3ADF519 Track not present in AccurateRip database Copy OK

Track 12

Filename E:\New Age\tomandandy\2012 - The Apparition (Varese Sarabande ‎#302 067 162 2)\12. tomandandy - Scary Laundry.wav

Pre-gap length 0:00:01.34

Peak level 95.0 % Extraction speed 2.0 X Track quality 100.0 % Test CRC EB6D5F89 Copy CRC EB6D5F89 Track not present in AccurateRip database Copy OK

Track 13

Filename E:\New Age\tomandandy\2012 - The Apparition (Varese Sarabande ‎#302 067 162 2)\13. tomandandy - Trapping The Apparition.wav

Pre-gap length 0:00:01.00

Peak level 94.4 % Extraction speed 1.8 X Track quality 100.0 % Test CRC EF6C9DD3 Copy CRC EF6C9DD3 Track not present in AccurateRip database Copy OK

Track 14

Filename E:\New Age\tomandandy\2012 - The Apparition (Varese Sarabande ‎#302 067 162 2)\14. tomandandy - Aftermath.wav

Pre-gap length 0:00:00.74

Peak level 48.7 % Extraction speed 1.1 X Track quality 99.9 % Test CRC 9CB0E09F Copy CRC 9CB0E09F Track not present in AccurateRip database Copy OK

Track 15

Filename E:\New Age\tomandandy\2012 - The Apparition (Varese Sarabande ‎#302 067 162 2)\15. tomandandy - Safe House.wav

Pre-gap length 0:00:00.34

Peak level 100.0 % Extraction speed 2.2 X Track quality 100.0 % Test CRC DB13B47C Copy CRC DB13B47C Track not present in AccurateRip database Copy OK

Track 16

Filename E:\New Age\tomandandy\2012 - The Apparition (Varese Sarabande ‎#302 067 162 2)\16. tomandandy - Kelly Escapes.wav

Pre-gap length 0:00:00.34

Peak level 94.5 % Extraction speed 1.9 X Track quality 100.0 % Test CRC 54584703 Copy CRC 54584703 Track not present in AccurateRip database Copy OK

Track 17

Filename E:\New Age\tomandandy\2012 - The Apparition (Varese Sarabande ‎#302 067 162 2)\17. tomandandy - Apparition Main Titles.wav

Pre-gap length 0:00:01.00

Peak level 94.4 % Extraction speed 2.4 X Track quality 100.0 % Test CRC EDFED706 Copy CRC EDFED706 Track not present in AccurateRip database Copy OK

None of the tracks are present in the AccurateRip database

No errors occurred

End of status report

---- CUETools DB Plugin V2.1.4

[CTDB TOCID: kanEpBtZuoVvEDAfSrKFRxZZN9U-] foundSubmit result: kanEpBtZuoVvEDAfSrKFRxZZN9U- has been confirmedTrack | CTDB Status 1 | (2/2) Accurately ripped 2 | (2/2) Accurately ripped 3 | (2/2) Accurately ripped 4 | (2/2) Accurately ripped 5 | (2/2) Accurately ripped 6 | (2/2) Accurately ripped 7 | (2/2) Accurately ripped 8 | (2/2) Accurately ripped 9 | (2/2) Accurately ripped 10 | (2/2) Accurately ripped 11 | (2/2) Accurately ripped 12 | (2/2) Accurately ripped 13 | (2/2) Accurately ripped 14 | (2/2) Accurately ripped 15 | (2/2) Accurately ripped 16 | (2/2) Accurately ripped 17 | (2/2) Accurately ripped

==== Log checksum 8C937E8489CF0CA6B6CE185044BFF6B91A854C11F3A7CA113430FEB40FCC6494 ====
REM GENRE "Score, Ambient"REM DATE 2012REM DISCID CF0A3611REM COMMENT "ExactAudioCopy v1.0b3"CATALOG 0030206716221PERFORMER "tomandandy"TITLE "The Apparition (Original Motion Picture Soundtrack)"FILE "01. tomandandy - Palmdale.wav" WAVE TRACK 01 AUDIO TITLE "Palmdale" PERFORMER "tomandandy" ISRC US3M51216201 INDEX 01 00:00:00 TRACK 02 AUDIO TITLE "Email Attachment" PERFORMER "tomandandy" ISRC US3M51216202 INDEX 00 04:17:67FILE "02. tomandandy - Email Attachment.wav" WAVE INDEX 01 00:00:00 TRACK 03 AUDIO TITLE "In Tents" PERFORMER "tomandandy" ISRC US3M51216203 INDEX 00 05:29:69FILE "03. tomandandy - In Tents.wav" WAVE INDEX 01 00:00:00 TRACK 04 AUDIO TITLE "Backyard Sound" PERFORMER "tomandandy" ISRC US3M51216204 INDEX 00 00:55:44FILE "04. tomandandy - Backyard Sound.wav" WAVE INDEX 01 00:00:00 TRACK 05 AUDIO TITLE "Broken Camera" PERFORMER "tomandandy" ISRC US3M51216205 INDEX 00 02:51:41FILE "05. tomandandy - Broken Camera.wav" WAVE INDEX 01 00:00:00FILE "06. tomandandy - Kid Scare.wav" WAVE TRACK 06 AUDIO TITLE "Kid Scare" PERFORMER "tomandandy" ISRC US3M51216206 INDEX 01 00:00:00 TRACK 07 AUDIO TITLE "Kelly Watches Video" PERFORMER "tomandandy" ISRC US3M51216207 INDEX 00 01:51:63FILE "07. tomandandy - Kelly Watches Video.wav" WAVE INDEX 01 00:00:00 TRACK 08 AUDIO TITLE "Alone In The House" PERFORMER "tomandandy" ISRC US3M51216208 INDEX 00 01:43:58FILE "08. tomandandy - Alone In The House.wav" WAVE INDEX 01 00:00:00 TRACK 09 AUDIO TITLE "Hotel" PERFORMER "tomandandy" ISRC US3M51216209 INDEX 00 02:40:34FILE "09. tomandandy - Hotel.wav" WAVE INDEX 01 00:00:00 TRACK 10 AUDIO TITLE "On The Ceiling" PERFORMER "tomandandy" ISRC US3M51216210 INDEX 00 00:57:37FILE "10. tomandandy - On The Ceiling.wav" WAVE INDEX 01 00:00:00 TRACK 11 AUDIO TITLE "Placing Trasmitters" PERFORMER "tomandandy" ISRC US3M51216211 INDEX 00 01:50:57FILE "11. tomandandy - Placing Trasmitters.wav" WAVE INDEX 01 00:00:00 TRACK 12 AUDIO TITLE "Scary Laundry" PERFORMER "tomandandy" ISRC US3M51216212 INDEX 00 01:17:17FILE "12. tomandandy - Scary Laundry.wav" WAVE INDEX 01 00:00:00 TRACK 13 AUDIO TITLE "Trapping The Apparition" PERFORMER "tomandandy" ISRC US3M51216213 INDEX 00 02:23:36FILE "13. tomandandy - Trapping The Apparition.wav" WAVE INDEX 01 00:00:00 TRACK 14 AUDIO TITLE "Aftermath" PERFORMER "tomandandy" ISRC US3M51216214 INDEX 00 01:39:51FILE "14. tomandandy - Aftermath.wav" WAVE INDEX 01 00:00:00 TRACK 15 AUDIO TITLE "Safe House" PERFORMER "tomandandy" ISRC US3M51216215 INDEX 00 02:10:26FILE "15. tomandandy - Safe House.wav" WAVE INDEX 01 00:00:00 TRACK 16 AUDIO TITLE "Kelly Escapes" PERFORMER "tomandandy" ISRC US3M51216216 INDEX 00 04:56:68FILE "16. tomandandy - Kelly Escapes.wav" WAVE INDEX 01 00:00:00 TRACK 17 AUDIO TITLE "Apparition Main Titles" PERFORMER "tomandandy" ISRC US3M51216217 INDEX 00 02:00:58FILE "17. tomandandy - Apparition Main Titles.wav" WAVE INDEX 01 00:00:00
AUDIOCHECKER v2.0 beta (build 457) - by Dester - opdester@freemail.hu~~~~~~~~~~~~~~~~~~~~~~~~~~~~~~~~~~

Started at: вторник, 28. 03. 2017. - 0:01.0817 files found

01 -===- E:\tomandandy - The Apparition (2012) [FLAC]\01. tomandandy - Palmdale.flac Extracted successfully Conclusion: this track is CDDA with probability 100% Tempfile successfully deleted.

02 -===- E:\tomandandy - The Apparition (2012) [FLAC]\02. tomandandy - Email Attachment.flac Extracted successfully Conclusion: this track is CDDA with probability 100% Tempfile successfully deleted.

03 -===- E:\tomandandy - The Apparition (2012) [FLAC]\03. tomandandy - In Tents.flac Extracted successfully Conclusion: this track is CDDA with probability 100% Tempfile successfully deleted.

04 -===- E:\tomandandy - The Apparition (2012) [FLAC]\04. tomandandy - Backyard Sound.flac Extracted successfully Conclusion: this track is CDDA with probability 100% Tempfile successfully deleted.

05 -===- E:\tomandandy - The Apparition (2012) [FLAC]\05. tomandandy - Broken Camera.flac Extracted successfully Conclusion: this track is CDDA with probability 100% Tempfile successfully deleted.

06 -===- E:\tomandandy - The Apparition (2012) [FLAC]\06. tomandandy - Kid Scare.flac Extracted successfully Conclusion: this track is CDDA with probability 100% Tempfile successfully deleted.

07 -===- E:\tomandandy - The Apparition (2012) [FLAC]\07. tomandandy - Kelly Watches Video.flac Extracted successfully Conclusion: this track is CDDA with probability 100% Tempfile successfully deleted.

08 -===- E:\tomandandy - The Apparition (2012) [FLAC]\08. tomandandy - Alone In The House.flac Extracted successfully Conclusion: this track is CDDA with probability 100% Tempfile successfully deleted.

09 -===- E:\tomandandy - The Apparition (2012) [FLAC]\09. tomandandy - Hotel.flac Extracted successfully Conclusion: this track is CDDA with probability 100% Tempfile successfully deleted.

10 -===- E:\tomandandy - The Apparition (2012) [FLAC]\10. tomandandy - On The Ceiling.flac Extracted successfully Conclusion: this track is CDDA with probability 100% Tempfile successfully deleted.

11 -===- E:\tomandandy - The Apparition (2012) [FLAC]\11. tomandandy - Placing Trasmitters.flac Extracted successfully Conclusion: this track is CDDA with probability 100% Tempfile successfully deleted.

12 -===- E:\tomandandy - The Apparition (2012) [FLAC]\12. tomandandy - Scary Laundry.flac Extracted successfully Conclusion: this track is CDDA with probability 100% Tempfile successfully deleted.

13 -===- E:\tomandandy - The Apparition (2012) [FLAC]\13. tomandandy - Trapping The Apparition.flac Extracted successfully Conclusion: this track is CDDA with probability 100% Tempfile successfully deleted.

14 -===- E:\tomandandy - The Apparition (2012) [FLAC]\14. tomandandy - Aftermath.flac Extracted successfully Conclusion: this track is CDDA with probability 85% Tempfile successfully deleted.

15 -===- E:\tomandandy - The Apparition (2012) [FLAC]\15. tomandandy - Safe House.flac Extracted successfully Conclusion: this track is CDDA with probability 100% Tempfile successfully deleted.

16 -===- E:\tomandandy - The Apparition (2012) [FLAC]\16. tomandandy - Kelly Escapes.flac Extracted successfully Conclusion: this track is CDDA with probability 100% Tempfile successfully deleted.

17 -===- E:\tomandandy - The Apparition (2012) [FLAC]\17. tomandandy - Apparition Main Titles.flac Extracted successfully Conclusion: this track is CDDA with probability 100% Tempfile successfully deleted.

Finished at: вторник, 28. 03. 2017. - 0:03.04 (operation time: 0:01.55)


Трекер:  [ 27-Мар-2017 23:00 ]

  

Скачать .torrent

Размер .torrent файла 13 KB


Размер: 279 MB
Хэш (hash) релиза: c064bc1353ac83eb4e7d8938dd70809dcd1fd3c0

Торренты, похожие на Явление The Apparition скачать торрент

Форум Название Автор Размер S L Добавлен
Саундтреки ·· (Score) Явление / The Apparition (by Tomandandy) - 2012, MP3 (tracks), 320 kbps Galfimbul 108841060104 MB 0 0 1357936980

23:43

11-Янв-13

Еще никто не оставлял запись к записи скачать торрент Явление The Apparition . Будь первым!

!Обратная связь