Скачать через торрент Охота на дьявола Серии: 1-16 из 16 Фильм бесплатно в хорошем качестве torrent

Скачивайте на UnionPeer.org фильмы через торрент без регистрации. Новинки кино в хорошем качестве через торрент. На UnionPeer.org можно скачать через торрент фильмы 2014 и 2015 годов. Самые новые фильмы.

Скачать торрент Охота на дьявола Серии: 1-16 из 16 бесплатно через .torrent фильм мультфильм сериал

Если у вас наблюдаются проблемы со скриншотами, переходом по ссылками, скачиванием торрентов - проблемы в блокировщике рекламы AdBlock. #хорошегоДня!


Статистика раздачи
Размер:  19.99 GB   |    Зарегистрирован:  6 месяцев   |    .torrent скачан:  270 раз   |   
Раздают:  2  
   
Загрузка...
 
Автор Сообщение

Galfimbul

avatar Galfimbul


Охота на дьявола
Год выпуска: 2016
Производство: Киностудия КИТ, IKa film
Жанр: Детектив, шпионский фильм
Продолжительность: 00:52:00
Субтитры: нет
Режиссёр: Давид Ткебучава
В ролях: Сергей Безруков, Мария Луговая, Евгений Стычкин, Артём Ткаченко, Илья Любимов, Наташа Швец (II), Дмитрий Поднозов, Петар Зекавица, Евгений Карпов, Иван Макаревич, Олег Гераськин, Иван Добронравов, Артём Крылов, Александр Зуев, Максим Митяшин, Андрей Руденский, Николай Шрайбер, Константин Адаев, Джунсуке Киношита, Диана Енакаева, Вероника Тимофеева, Людмила Харитонова, Полина Максимова
Описание: В основу истории легло реальное научное открытие российского физика Михаила Филиппова, которое он совершил в начале XX века. Учёный исследовал электромагнитные волны и проводил опыты по передаче энергии взрыва на расстоянии. Это явление получило название «гипотетический луч Филиппова». Сериал покажет, чем могла бы обернуться для человечества Вторая мировая война, если бы разработки Филиппова не были уничтожены.

За секретным оружием охотятся разведчики из Германии, СССР, Японии и Великобритании. Противостоять им будет Макс Ливиус, бывший русский офицер, освоивший в мирное время профессию кинорежиссера. Ему помогут агент НКВД и по совместительству любимая девушка Аня, а также сотрудник британской разведки и преданный друг Фил Килби.
/ Сэмпл
Релиз от:
Качество: HDTVRip 720p
Формат: MKV
Видео кодек: H.264
Аудио кодек: AC3
Видео: MPEG-4 AVC, 1280x544 (2.35:1), 25.000 fps, 3500 Kbps, 0.201 bits/pixel
Аудио: 48 kHz, AC3 Dolby Digital, 2 ch, 192 Kbps

Реклама: Нет
General

Complete name : Downloads\Ohota.na.dyavola.2016.HDTVRip.(720p).Nikolspup\Ohota.na.dyavola.(01.seriya.iz.16).2016.HDTVRip.(720p).Nikolspup.mkv
Format : Matroska
Format version : Version 4 / Version 2
File size : 1.32 GiB
Duration : 51mn 21s
Overall bit rate : 3 693 Kbps
Encoded date : UTC 2017-03-14 07:53:18
Writing application : mkvmerge v7.8.0 ('River Man') 32bit built on Apr 3 2015 12:11:22
Writing library : libebml v1.3.1 + libmatroska v1.4.2
DURATION : 00:51:21.216000000
NUMBER_OF_FRAMES : 96288
NUMBER_OF_BYTES : 73949184
_STATISTICS_WRITING_APP : mkvmerge v7.8.0 ('River Man') 32bit built on Apr 3 2015 12:11:22
_STATISTICS_WRITING_DATE_UTC : 2017-03-14 07:53:18
_STATISTICS_TAGS : BPS DURATION NUMBER_OF_FRAMES NUMBER_OF_BYTES
Video #1
ID : 1
Format : AVC
Format/Info : Advanced Video Codec
Format profile : High@L4.1
Format settings, CABAC : Yes
Format settings, ReFrames : 9 frames
Codec ID : V_MPEG4/ISO/AVC
Duration : 51mn 21s
Bit rate : 3 500 Kbps
Width : 1 280 pixels
Height : 544 pixels
Display aspect ratio : 2.35:1
Frame rate mode : Constant
Frame rate : 25.000 fps
Color space : YUV
Chroma subsampling : 4:2:0
Bit depth : 8 bits
Scan type : Progressive
Bits/(Pixel*Frame) : 0.201
Stream size : 1.23 GiB (93%)
Writing library : x264 core 146 r2538 121396c
Encoding settings : cabac=1 / ref=9 / deblock=1:-3:-3 / analyse=0x3:0x113 / me=umh / subme=11 / psy=1 / psy_rd=1.00:0.20 / mixed_ref=1 / me_range=32 / chroma_me=1 / trellis=2 / 8x8dct=1 / cqm=0 / deadzone=21,11 / fast_pskip=0 / chroma_qp_offset=-3 / threads=4 / lookahead_threads=1 / sliced_threads=0 / nr=0 / decimate=0 / interlaced=0 / bluray_compat=0 / constrained_intra=0 / bframes=12 / b_pyramid=2 / b_adapt=2 / b_bias=0 / direct=3 / weightb=1 / open_gop=0 / weightp=2 / keyint=250 / keyint_min=25 / scenecut=40 / intra_refresh=0 / rc_lookahead=60 / rc=2pass / mbtree=0 / bitrate=3500 / ratetol=1.0 / qcomp=0.60 / qpmin=0 / qpmax=69 / qpstep=4 / cplxblur=20.0 / qblur=0.5 / vbv_maxrate=14000 / vbv_bufsize=14000 / nal_hrd=none / filler=0 / ip_ratio=1.40 / pb_ratio=1.30 / aq=3:0.80
Default : No
Forced : No
Color primaries : BT.709
Transfer characteristics : BT.709
Matrix coefficients : BT.709
Color range : Limited
DURATION : 00:51:21.240000000
NUMBER_OF_FRAMES : 77031
NUMBER_OF_BYTES : 1347796179
_STATISTICS_WRITING_APP : mkvmerge v7.8.0 ('River Man') 32bit built on Apr 3 2015 12:11:22
_STATISTICS_WRITING_DATE_UTC : 2017-03-14 07:53:18
_STATISTICS_TAGS : BPS DURATION NUMBER_OF_FRAMES NUMBER_OF_BYTES
Audio #2
ID : 2
Format : AC-3
Format/Info : Audio Coding 3
Mode extension : CM (complete main)
Format settings, Endianness : Big
Codec ID : A_AC3
Duration : 51mn 21s
Bit rate mode : Constant
Bit rate : 192 Kbps
Channel(s) : 2 channels
Channel positions : Front: L R
Sampling rate : 48.0 KHz
Bit depth : 16 bits
Compression mode : Lossy
Stream size : 70.5 MiB (5%)
Language : Russian
Default : Yes
Forced : Yes


Трекер:  [ 25-Мар-2017 12:30 ]

  

Скачать .torrent

Размер .torrent файла 28 KB


Размер: 19.99 GB
Хэш (hash) релиза: 76d27104974808539fd71ea9a35be8d93c403b85
Подписка на обновления:

Торренты, похожие на Охота на дьявола Серии: 1-16 из 16 скачать торрент

Форум Название Автор Размер S L Добавлен
Российские сериалы ·· Охота на дьявола / Серии: 1-2 из 16 (Давид Ткебучава) [2016, детектив, шпионский фильм, SATRip-AVC] Galfimbul 12395390921.15 GB 0 0 1489459461

05:44

14-Мар-17

Российские сериалы ·· Охота на дьявола / Серии: 1-2 из 16 (Давид Ткебучава) [2016, Детектив, шпионский фильм, SATRip] Galfimbul 13422858241.25 GB 0 0 1489432647

22:17

13-Мар-17

Еще никто не оставлял запись к записи скачать торрент Охота на дьявола Серии: 1-16 из 16 . Будь первым!

!Обратная связь