Скачать через торрент Ван-Пис: Фильм девятый Одним куском: История Чоппера One Piece: Episode of Chopper Plus - Fuyu ni Saku, Kiseki no Sakura бесплатно Аниме Все серии на русском torrent

Если у вас наблюдаются проблемы со скриншотами, переходом по ссылками, скачиванием торрентов - проблемы в блокировщике рекламы AdBlock. #хорошегоДня!


Статистика раздачи
Размер:  34.54 GB   |    Зарегистрирован:  8 месяцев   |    .torrent скачан:  25 раз   |   
Раздают:  1  
   
Загрузка...
 
Автор Сообщение

Galfimbul

avatar Galfimbul


Ван-Пис: Фильм девятый Одним куском: История ЧоппераOne Piece: Episode of Chopper Plus - Fuyu ni Saku, Kiseki no Sakura
Страна: Япония
Год выпуска: 2008
Жанр: приключения, комедия, фэнтези
Тип: Movie
Продолжительность:1 эпизод 112 минyт
Режиссер: Симидзу Дзюндзи
Студия: Toei Animation

Описание: По сюжету это укороченная версия "Drum Arc" саги "Baroque Works".
Там уже наши герои прибывают на остров на Санни Го в компании Фрэнки и Нико Робин. А не хватающего в команде Чоппера они возьмут себе в команду только сейчас. У Вапора в наличие появляется другой слуга, который оказывается весьма крепким орешком. А в самом конце нас ждет весьма интересный "Босс Уровня"
Качество: Blu-ray (1080p)
Тип релиза: Без хардсаба
Формат видео: TS
Наличие линковки: Нет
Видео: H.264, 8 bit, ~ 42 Мбит/с, 1920x1080, 23.976 fps
Аудио: Язык Японский (TrueHD / 5.1 / 48 kHz / 2500 kbps / 24-bit (DTS Core: 5.1 / 48 kHz / 1509 kbps / 24-bit)
Субтитры: Перевод на русский One Piece.ru - скачать отдельным файлом
ОбщееИдентификатор : 0 (0x0)Полное имя : D:\One Piece Episode of Chopper Plus - Fuyu ni Saku, Kiseki no Sakura [BDMV]\BDMV\STREAM\00002.m2tsФормат : BDAVФормат/Информация : Blu-ray VideoРазмер файла : 16,2 ГбайтПродолжительность : 52 м. 59 с.Режим общего битрейта : ПеременныйОбщий поток : 43,9 Мбит/секМаксимальный общий битрейт : 48,0 Мбит/сек

ВидеоИдентификатор : 4113 (0x1011)Идентификатор меню : 1 (0x1)Формат : AVCФормат/Информация : Advanced Video CodecПрофиль формата : High@L4.1Параметр CABAC формата : ДаПараметр ReFrames формата : 4 кадраИдентификатор кодека : 27Продолжительность : 52 м. 55 с.Вид битрейта : ПеременныйБитрейт : 41,5 Мбит/секМаксимальный битрейт : 39,0 Мбит/секШирина : 1920 пикселейВысота : 1080 пикселейСоотношение сторон : 16:9Частота кадров : 23,976 (24000/1001) кадра/секЦветовое пространство : YUVСубдискретизация насыщенности : 4:2:0Битовая глубина : 8 битТип развёртки : ПрогрессивнаяБит/(Пиксели*Кадры) : 0.835Размер потока : 15,3 Гбайт (94%)Цветовой диапазон : LimitedОсновные цвета : BT.709Характеристики трансфера : BT.709Коэффициенты матрицы : BT.709

АудиоИдентификатор : 4352 (0x1100)Идентификатор меню : 1 (0x1)Формат : TrueHD / AC-3Расширение режима : CM (complete main)Параметр Endianness формата : BigРежим смешивания : Stream extensionИдентификатор кодека : 131Продолжительность : 52 м. 59 с.Вид битрейта : Переменный / ПостоянныйБитрейт : 640 Кбит/секМаксимальный битрейт : 2502 Кбит/секКаналы : 6 каналовРасположение каналов : Front: L C R, Side: L R, LFEЧастота : 48,0 КГцЧастота кадров : 31,250 кадров/сек (1536 spf)Битовая глубина : 16 битРазмер потока : 243 Мбайт (1%)

ТекстИдентификатор : 4608 (0x1200)Идентификатор меню : 1 (0x1)Формат : PGSИдентификатор кодека : 144Продолжительность : 52 м. 41 с.Задержка видео : 11 с. 386 мс.

ОбщееИдентификатор : 0 (0x0)Полное имя : D:\One Piece Episode of Chopper Plus - Fuyu ni Saku, Kiseki no Sakura [BDMV]\BDMV\STREAM\00003.m2tsФормат : BDAVФормат/Информация : Blu-ray VideoРазмер файла : 16,6 ГбайтПродолжительность : 56 м. 38 с.Режим общего битрейта : ПеременныйОбщий поток : 42,0 Мбит/секМаксимальный общий битрейт : 48,0 Мбит/сек

ВидеоИдентификатор : 4113 (0x1011)Идентификатор меню : 1 (0x1)Формат : AVCФормат/Информация : Advanced Video CodecПрофиль формата : High@L4.1Параметр CABAC формата : ДаПараметр ReFrames формата : 4 кадраИдентификатор кодека : 27Продолжительность : 56 м. 17 с.Вид битрейта : ПеременныйБитрейт : 39,7 Мбит/секМаксимальный битрейт : 39,0 Мбит/секШирина : 1920 пикселейВысота : 1080 пикселейСоотношение сторон : 16:9Частота кадров : 23,976 (24000/1001) кадра/секЦветовое пространство : YUVСубдискретизация насыщенности : 4:2:0Битовая глубина : 8 битТип развёртки : ПрогрессивнаяБит/(Пиксели*Кадры) : 0.799Размер потока : 15,6 Гбайт (94%)Цветовой диапазон : LimitedОсновные цвета : BT.709Характеристики трансфера : BT.709Коэффициенты матрицы : BT.709

АудиоИдентификатор : 4352 (0x1100)Идентификатор меню : 1 (0x1)Формат : TrueHD / AC-3Расширение режима : CM (complete main)Параметр Endianness формата : BigРежим смешивания : Stream extensionИдентификатор кодека : 131Продолжительность : 56 м. 37 с.Вид битрейта : Переменный / ПостоянныйБитрейт : 640 Кбит/секМаксимальный битрейт : 2667 Кбит/секКаналы : 6 каналовРасположение каналов : Front: L C R, Side: L R, LFEЧастота : 48,0 КГцЧастота кадров : 31,250 кадров/сек (1536 spf)Битовая глубина : 16 битРазмер потока : 259 Мбайт (2%)

ТекстИдентификатор : 4608 (0x1200)Идентификатор меню : 1 (0x1)Формат : PGSИдентификатор кодека : 144Продолжительность : 56 м. 14 с.Задержка видео : 2 с. 794 мс.
...4304018 - Blu-ray 1080p
...4303575 - Blu-ray 1080p


Трекер:  [ 24-Мар-2017 14:00 ]

  

Скачать .torrent

Размер .torrent файла 90 KB


Размер: 34.54 GB
Хэш (hash) релиза: 29778ed17ac8d194d9cc052384dabb01d0f70499
Подписка на обновления:

Еще никто не оставлял запись к записи скачать торрент Ван-Пис: Фильм девятый Одним куском: История Чоппера One Piece: Episode of Chopper Plus - Fuyu ni Saku, Kiseki no Sakura . Будь первым!

!Обратная связь