Скачать порно через торрент Naughty Office 49 Развратный Офис 49 UnionPeer.org бесплатно онлайн HD качество

Скачать новое порно 2015, 2014 новинки через торрент UnionPeer.org

Порно торрент бесплатно ЮнионПир.орг

Если у вас наблюдаются проблемы со скриншотами, переходом по ссылками, скачиванием торрентов - проблемы в блокировщике рекламы AdBlock. #хорошегоДня!


Статистика раздачи
Размер:  2.51 GB   |    Зарегистрирован:  5 месяцев   |    .torrent скачан:  298 раз   |   
Раздают:  2  
   
Загрузка...
 
Автор Сообщение

Galfimbul

avatar Galfimbul


Naughty Office 49 / Развратный Офис 49 Год производства: 2017 г.
Страна: USA
Жанр: All Sex Office Prebooks
Продолжительность:1-00:29:40. 2-00:25:38. 3-00:26:04. 4-00:21:28. 5-00:29:29.
Язык: Английский

Студия: Naughty America

В ролях: Darla Crane. Jessica Jaymes. Syren Demar. Nikita Von James. Summer Brielle. Casey Calvert.
Описание: Welcome to Naughty Office, where we explore all of your work-related fantasies! Inside, you''ll see secretaries getting fucked by their bosses, interns sucking cock, and a whole lot m

Разбит на эпизоды: Да
Доп. информация: http://www.adultdvdempire.com/1899413/naughty-office-vol-49-porn-movies.html?qs=Naughty%20Office%20Vol.%2049

Качество видео: WEB-DL
Формат видео: MP4
Видео: MPEG4 Video (H264) 854x480 30fps [VideoHandler - MPEG4 Video (H264) (eng)]
Аудио: AAC 44100Hz stereo 106kbps [SoundHandler - MPEG-4 Audio (eng)]
Bit rate Video: 2 601 Kbps
Bit rate Audio : 128 Kbps
Video
ID : 1
Format : AVC
Format/Info : Advanced Video Codec
Format profile : High@L3.0
Format settings, CABAC : Yes
Format settings, ReFrames : 4 frames
Codec ID : avc1
Codec ID/Info : Advanced Video Coding
Duration : 29mn 39s
Bit rate : 2 601 Kbps
Width : 854 pixels
Height : 480 pixels
Display aspect ratio : 16:9
Frame rate mode : Constant
Frame rate : 30.000 fps
Color space : YUV
Chroma subsampling : 4:2:0
Bit depth : 8 bits
Scan type : Progressive
Bits/(Pixel*Frame) : 0.212
Stream size : 552 MiB (96%)
Writing library : x264 core 136
Encoding settings : mbtree=1 / bitrate=2601 / ratetol=1.0 / qcomp=0.50 / qpmin=8 / qpmax=51 / qpstep=4 / cplxblur=20.0 / qblur=0.5 / ip_ratio=1.41 / aq=1:1.00
Language : English

Audio
ID : 2
Format : AAC
Format/Info : Advanced Audio Codec
Format profile : LC
Codec ID : 40
Duration : 29mn 39s
Duration_LastFrame : -18ms
Bit rate mode : Variable
Bit rate : 103 Kbps
Maximum bit rate : 128 Kbps
Channel(s) : 2 channels
Channel positions : Front: L R
Sampling rate : 44.1 KHz
Compression mode : Lossy
Delay relative to video : -2ms
Stream size : 21.9 MiB (4%)
Language : English


Трекер:  [ 21-Мар-2017 22:00 ]

  

Скачать .torrent

Размер .torrent файла 13 KB


Размер: 2.51 GB
Хэш (hash) релиза: 0d54921985b069fb786376405d1c4203897f1e69

Еще никто не оставлял запись к записи скачать торрент Naughty Office 49 Развратный Офис 49 . Будь первым!

!Обратная связь