Скачать через торрент Сверхъестественное Supernatural Фильм бесплатно в хорошем качестве torrent

Скачивайте на UnionPeer.org фильмы через торрент без регистрации. Новинки кино в хорошем качестве через торрент. На UnionPeer.org можно скачать через торрент фильмы 2014 и 2015 годов. Самые новые фильмы.

Скачать торрент Сверхъестественное Supernatural бесплатно через .torrent фильм мультфильм сериал

Статистика раздачи
Размер:  1.55 GB   |    Зарегистрирован:  3 дня   |    .torrent скачан:  32 раза   |   
Раздают:  1  
   
 
Автор Сообщение

Galfimbul

avatar Galfimbul


Сверхъестественное / Supernatural«Только мы знаем, что темноты стоит бояться»
Год выпуска: 2005
Страна: США
Жанр: Ужасы, Триллер, Фэнтези
Продолжительность: 00:46:00

Перевод: Профессиональный (дублированный) (РЕН-ТВ)

Режиссёр: Эрик Крипке

В ролях: Джаред Падалеки, Дженсен Эклз, Джеффри Дин Морган, Саманта Смит, Фредрик Лене и др.

Описание: Когда-то в городе Лоуренс, штат Канзас, вместе со своими малолетними сыновьями, мирно жила чета Винчестеров. Но буквально за один день жизнь этих людей изменилась навсегда, дом сгорел, в огне пожара погибла Мэри Винчестер — любящая мать и любимая жена. Четырехлетний Дин Винчестер вынес из огня своего шестимесячного братишку и с тех пор стал для него ангелом хранителем, готовым на все ради безопасности младшего брата. А Джон Винчестер из простого рабочего гаража, превратился в смелого охотника за нечистью, одержимого идеей отомстить за смерть жены. С этой мыслью он воспитывал своих сыновей, ставших искусными бойцами, сражающимися плечом к плечу с отцом.

И именно из Лоуренса началось бесконечное путешествие семьи Винчестеров по бескрайним просторам Америки в поисках людей, которым необходима помощь, кому не откуда ждать подмоги и не на кого рассчитывать, когда в их жизнь железной поступью ворвалось сверхъестественное...

Доп. информация: Раздача обновляемая, серии будут добавляться по мере их готовности, примерно от 3 до 6 серий в день

Ссылка на предыдущие и альтернативные раздачи:

Сэмпл: http://multi-up.com/1146176

Качество: HDRip-AVC Исходник: ...4042237
Формат: MKV
Видео: AVC, 1024x576 (16:9), 23.976 fps, 2201 kbps
Аудио: Русский: AC3 Dolby Digital, 48 kHz, 2.0 ch, 192 kbps - Дубляж (РЕН-ТВ)
Субтитры: отсутствуют
1 серия - Пилот / Pilot
2 серия - Вендиго / Wendigo
3 серия - Мертвец в Воде / Dead In The Water
4 серия - Призрачный Странник / Phantom Traveler
5 серия - Кровавая Мэри / Bloody Mary
6 серия - Кожа / Skin
7 серия - Человек с Крюком / Hookman
8 серия - Жуки / Bugs
9 серия - Дом / Home
10 серия - Психушка / Asylum
11 серия - Пугало / Scarecrow
12 серия - Вера / Faith
13 серия - Шоссе 6.6.6 / Route 6.6.6
14 серия - Кошмар / Nightmare
15 серия - Бендеры / The Benders
16 серия - Тень / Shadow
17 серия - Адский Дом / Hell House
18 серия - Нечто Злое / Something Wicked
19 серия - Происхождение / Provenance
20 серия - Кровь Мертвеца / Dead Man's Blood
21 серия - Спасение / Salvation
22 серия - Дьявольская Ловушка / Devil's Trap
Общее
Уникальный идентификатор : 127210614191388191810484017184362082871 (0x5FB3DF843C5F5C1CF0C3CAB3EADE3237)
Полное имя : D:\Supernatural.S01.2005.HDRip-AVC.x264.АС3\Supernatural.S01.E01.2005.HDRip-AVC.х264.ас3.mkv
Формат : Matroska
Версия формата : Version 4 / Version 2
Размер файла : 794 Мбайт
Продолжительность : 46 м. 24 с.
Общий поток : 2391 Кбит/сек
Дата кодирования : UTC 2017-03-19 17:20:35
Программа кодирования : Lavf57.57.100
Библиотека кодирования : Lavf57.57.100 / Lavf57.57.100
ErrorDetectionType : Per level 1

Видео
Идентификатор : 1
Формат : AVC
Формат/Информация : Advanced Video Codec
Профиль формата : High@L4.1
Параметр CABAC формата : Да
Параметр ReFrames формата : 5 кадров
Идентификатор кодека : V_MPEG4/ISO/AVC
Продолжительность : 46 м. 24 с.
Битрейт : 2201 Кбит/сек
Ширина : 1024 пикселя
Высота : 576 пикселей
Соотношение сторон : 16:9
Режим частоты кадров : Постоянный
Частота кадров : 23,976 (24000/1001) кадра/сек
Цветовое пространство : YUV
Субдискретизация насыщенности : 4:2:0
Битовая глубина : 8 бит
Тип развёртки : Прогрессивная
Бит/(Пиксели*Кадры) : 0.156
Размер потока : 714 Мбайт (90%)
Библиотека кодирования : x264 core 148 r2721
Настройки программы : cabac=1 / ref=5 / deblock=1:-3:-3 / analyse=0x3:0x113 / me=hex / subme=7 / psy=1 / psy_rd=1.00:0.10 / mixed_ref=0 / me_range=16 / chroma_me=1 / trellis=2 / 8x8dct=1 / cqm=0 / deadzone=21,11 / fast_pskip=1 / chroma_qp_offset=-3 / threads=6 / lookahead_threads=1 / sliced_threads=0 / nr=0 / decimate=1 / interlaced=0 / bluray_compat=0 / constrained_intra=0 / bframes=2 / b_pyramid=0 / b_adapt=2 / b_bias=0 / direct=3 / weightb=0 / open_gop=0 / weightp=2 / keyint=239 / keyint_min=23 / scenecut=40 / intra_refresh=0 / rc_lookahead=40 / rc=2pass / mbtree=1 / bitrate=2201 / ratetol=1.0 / qcomp=0.60 / qpmin=10 / qpmax=69 / qpstep=4 / cplxblur=20.0 / qblur=0.5 / vbv_maxrate=3252 / vbv_bufsize=24000 / nal_hrd=none / filler=0 / ip_ratio=1.40 / aq=2:1.30
Default : Да
Forced : Нет
DURATION : 00:46:24.532000000

Аудио
Идентификатор : 2
Формат : AC-3
Формат/Информация : Audio Coding 3
Параметр Endianness формата : Big
Идентификатор кодека : A_AC3
Продолжительность : 46 м. 24 с.
Вид битрейта : Постоянный
Битрейт : 192 Кбит/сек
Каналы : 2 канала
Расположение каналов : Front: L R
Частота : 48,0 КГц
Частота кадров : 31,250 кадров/сек (1536 spf)
Битовая глубина : 16 бит
Метод сжатия : С потерями
Размер потока : 63,7 Мбайт (8%)
Язык : Russian
ServiceKind/String : Complete Main
Default : Да
Forced : Нет
DURATION : 00:46:24.768000000


Трекер:  [ 21-Мар-2017 01:30 ]

  

Скачать .torrent

Размер .torrent файла 16 KB


Размер: 1.55 GB
Хэш (hash) релиза: 6f591f455ad1767fc137ed76767670d1a3f7be2e
Подписка на обновления:

Еще никто не оставлял запись к записи скачать торрент Сверхъестественное Supernatural . Будь первым!

!Обратная связь