Скачать через торрент Мата Хари Серии: 1-2 из 12 Фильм бесплатно в хорошем качестве torrent

Скачивайте на UnionPeer.org фильмы через торрент без регистрации. Новинки кино в хорошем качестве через торрент. На UnionPeer.org можно скачать через торрент фильмы 2014 и 2015 годов. Самые новые фильмы.

Скачать торрент Мата Хари Серии: 1-2 из 12 бесплатно через .torrent фильм мультфильм сериал

Статистика раздачи
Размер:  4.37 GB   |    Зарегистрирован:  2 месяца 7 дней   |    .torrent скачан:  45 раз   |   
Раздают:  1  
   
 
Автор Сообщение

Galfimbul

avatar Galfimbul


Мата Хари

Год выпуска: 2016
Производство: Star Media по заказу Первого канала
Жанр: Биография, драма, исторический фильм
Продолжительность: 00:50:00
Субтитры: нет
Режиссёр: Дени Берри, Джулиус Берг
В ролях: Ваина Джоканте, Ойсин Стак, Максим Матвеев, Рутгер Хауэр, Йехезкель Лазаров, Джон Корбетт, Алексей Гуськов, Раде Шербеджия, Нуно Лопес, Крис Мерфи, Ксения Раппопорт, Виктория Исакова, Кристофер Ламберт, Александр Петров (III), Светлана Ходченкова, Мария Фомина, Макар Запорожский, Александр Михайлов, Дмитрий Мальцев (III), Дарья Мельникова, Жорж Девдариани, Евгений Шибалко, Пётр Нестеров, Сергей Самородов, Артём Цыпин, Александр Хошабаев, Иван Рудаков
Описание: Биографическая драма о жизни Маргареты Зелле, более известной как Мата Хари.
Маргарет Мак-Леод, преследуемая своим бывшим мужем, лишается опеки над дочерью и брошена на произвол судьбы, не имея никаких средств к существованию. Она становится танцовщицей, отчаявшись найти какой-либо другой заработок.
Под псевдонимом Мата Хари, Маргарет становится любимицей европейской элиты. Для неё открываются двери роскошных особняков и вилл, каждое выступление производит невероятный фурор. Но грядёт Первая мировая война, которая навсегда изменит ход истории. И едва ли Мата Хари догадывается, какую роль ей суждено сыграть в предстоящих событиях.
/ Сэмпл
Релиз-группа:
Качество: HDTV 1080i
Формат: MKV
Видео кодек: H.264
Аудио кодек: AC3
Видео: MPEG-4 AVC, 1920x1080 (16:9), 25.000 fps, 5633 Kbps, 0.109 bits/pixel
Аудио 1: 48 kHz, AC3 Dolby Digital, 3/2 (L,C,R,l,r) + LFE ch, 384 Kbps
Аудио 2: 48 kHz, MP2, 2 ch, 192 Kbps

Реклама: Нет
General #1
ID : 1 (0x1)
Complete name : Downloads\Mata Hari.HDTV(1080i).GeneralFilm\Mata Hari.01.HDTV(1080i).GeneralFilm.ts
Format : MPEG-TS
File size : 2.08 GiB
Duration : 45mn 27s
Overall bit rate mode : Variable
Overall bit rate : 6 538 Kbps
Video #1904
ID : 1904 (0x770)
Menu ID : 5640 (0x1608)
Format : AVC
Format/Info : Advanced Video Codec
Format profile : High@L4.0
Format settings, CABAC : Yes
Format settings, ReFrames : 3 frames
Codec ID : 27
Duration : 45mn 27s
Bit rate : 5 633 Kbps
Width : 1 920 pixels
Height : 1 080 pixels
Display aspect ratio : 16:9
Frame rate : 25.000 fps
Standard : Component
Color space : YUV
Chroma subsampling : 4:2:0
Bit depth : 8 bits
Scan type : Interlaced
Scan order : Top Field First
Bits/(Pixel*Frame) : 0.109
Stream size : 1.79 GiB (86%)
Color primaries : BT.709
Transfer characteristics : BT.709
Matrix coefficients : BT.709
Color range : Limited
Audio #2904
ID : 2904 (0xB58)
Menu ID : 5640 (0x1608)
Format : AC-3
Format/Info : Audio Coding 3
Mode extension : CM (complete main)
Format settings, Endianness : Big
Codec ID : 6
Duration : 45mn 27s
Bit rate mode : Constant
Bit rate : 384 Kbps
Channel(s) : 6 channels
Channel positions : Front: L C R, Side: L R, LFE
Sampling rate : 48.0 KHz
Bit depth : 16 bits
Compression mode : Lossy
Delay relative to video : -80ms
Stream size : 125 MiB (6%)
Language : Russian
Audio #2905
ID : 2905 (0xB59)
Menu ID : 5640 (0x1608)
Format : MPEG Audio
Format version : Version 1
Format profile : Layer 2
Codec ID : 3
Duration : 45mn 27s
Bit rate mode : Constant
Bit rate : 192 Kbps
Channel(s) : 2 channels
Sampling rate : 48.0 KHz
Compression mode : Lossy
Delay relative to video : -80ms
Stream size : 62.4 MiB (3%)
Language : Russian
(1) остановить скачивание,
(2) удалить старый торрент у себя из клиента (старые серии удалять не надо),
(3) скачать новый торрент и запустить его у себя в клиенте вместо старого, при этом указать клиенту путь в старую папку куда и должно происходить скачивание новых серий.
Ваш клиент при этом должен произвести хеширование (проверку) старой папки (если не производит сам - помогите ему сделать это), и будет докачивать только те серии которых у вас ещё нет. Старые серии при этом не удаляются, а продолжают раздаваться!
Eсли вы уже удалили старые серии, то предотвратить повторную закачку старых серий можно, отжав галочку в соответсвующих местах при запуске нового торрента. По возможности, желательно не удалять старые серии как можно дольше чтобы релизёр не столько продолжал раздавать старые серии, а смог сконцентрироваться на новых.


Трекер:  [ 21-Мар-2017 00:30 ]

  

Скачать .torrent

Размер .torrent файла 22 KB


Размер: 4.37 GB
Хэш (hash) релиза: 4674263f2554897e2f85244aef1c6ae9e6bc2714
Подписка на обновления:

Еще никто не оставлял запись к записи скачать торрент Мата Хари Серии: 1-2 из 12 . Будь первым!

!Обратная связь