Скачать через торрент В пустыне смерти Into the Badlands Фильм бесплатно в хорошем качестве torrent

Скачивайте на UnionPeer.org фильмы через торрент без регистрации. Новинки кино в хорошем качестве через торрент. На UnionPeer.org можно скачать через торрент фильмы 2014 и 2015 годов. Самые новые фильмы.

Скачать торрент В пустыне смерти Into the Badlands бесплатно через .torrent фильм мультфильм сериал

Если у вас наблюдаются проблемы со скриншотами, переходом по ссылками, скачиванием торрентов - проблемы в блокировщике рекламы AdBlock. #хорошегоДня!


Статистика раздачи
Размер:  1.79 GB   |    Зарегистрирован:  5 месяцев 1 день   |    .torrent скачан:  38 раз   |   
Раздают:  1  
   
Загрузка...
 
Автор Сообщение

Galfimbul

avatar Galfimbul


В пустыне смерти / Into the Badlands

Год выпуска: 2015
Страна: США
Жанр: Боевик, драма, приключения.
Продолжительность: 00:42:00
Перевод: Профессиональный (двухголосый закадровый) Alternative Production
Режиссёр: Дэвид Добкин

В ролях: Эмили Бичем, Сара Болгер, Орла Брэйди, Мартон Чокаш, Элли Иоаннидес, Арамис Найт, Мадлен Манток, Майкл Сил, Оливер Старк, Дэниэл Ву и др.
Описание:
Сериал про воина по имени Санни, сопровождающего в пути по бесплодным землям юного мальчика.

Качество: WEB-DL 1080p
Формат: MKV
Видео кодек: H.264
Аудио кодек: AC3
Видео: H.264, 1916x1076 (16:9), 23.976 fps, 4 993 Kbps, 0.101 bit/pixel
Аудио 1: AC3 Dolby Digital, 48 kHz, 3/2 (L,C,R,l,r) + LFE ch, 384 kbps
Аудио 2: AC3 Dolby Digital, 48 kHz, 3/2 (L,C,R,l,r) + LFE ch, 384 kbps
Субтитры: отсутствуют
Реклама: аудио (два раза, в начале и конце, по 5 сек.)

Релиз
General
Unique ID : 246748324079571401679712612642633190009 (0xB9A1FFA4B90CDC55BD0A1EC1A8768A79)
Format : Matroska
Format version : Version 4 / Version 2
File size : 1.80 GiB
Duration : 44mn 0s
Overall bit rate : 5 871 Kbps
Movie name : Into.The.Badlands.S01E01.1080p.WEB-DL.DD5.1.H264-RARBG
Encoded date : UTC 2015-11-16 17:45:59
Writing application : mkvmerge v8.3.0 ('Over the Horizon') 64bit
Writing library : libebml v1.3.1 + libmatroska v1.4.2
Attachements : poster 8.jpg
DURATION : 00:44:00.384000000
NUMBER_OF_FRAMES : 82512
NUMBER_OF_BYTES : 126738432
_STATISTICS_WRITING_APP : mkvmerge v8.3.0 ('Over the Horizon') 64bit
_STATISTICS_WRITING_DATE_UT : 2015-11-16 17:45:59
_STATISTICS_TAGS : BPS DURATION NUMBER_OF_FRAMES NUMBER_OF_BYTES

Video
ID : 1
Format : AVC
Format/Info : Advanced Video Codec
Format profile : High@L4.0
Format settings, CABAC : Yes
Format settings, ReFrames : 4 frames
Codec ID : V_MPEG4/ISO/AVC
Duration : 44mn 0s
Bit rate : 4 986 Kbps
Width : 1 916 pixels
Height : 1 076 pixels
Display aspect ratio : 16:9
Frame rate mode : Constant
Frame rate : 23.976 fps
Color space : YUV
Chroma subsampling : 4:2:0
Bit depth : 8 bits
Scan type : Progressive
Bits/(Pixel*Frame) : 0.101
Stream size : 1.53 GiB (85%)
Title : Into.The.Badlands.S01E01.1080p.WEB-DL.DD5.1.H264-RARBG
Language : English
Default : Yes
Forced : No
Color primaries : BT.709
Transfer characteristics : BT.709
Matrix coefficients : BT.709
Color range : Limited

Audio #1
ID : 2
Format : AC-3
Format/Info : Audio Coding 3
Mode extension : CM (complete main)
Format settings, Endianness : Big
Codec ID : A_AC3
Duration : 44mn 0s
Bit rate mode : Constant
Bit rate : 384 Kbps
Channel(s) : 6 channels
Channel positions : Front: L C R, Side: L R, LFE
Sampling rate : 48.0 KHz
Bit depth : 16 bits
Compression mode : Lossy
Stream size : 121 MiB (7%)
Title : Alt Pro
Language : Russian
Default : Yes
Forced : No

Audio #2
ID : 3
Format : AC-3
Format/Info : Audio Coding 3
Mode extension : CM (complete main)
Format settings, Endianness : Big
Codec ID : A_AC3
Duration : 44mn 0s
Bit rate mode : Constant
Bit rate : 384 Kbps
Channel(s) : 6 channels
Channel positions : Front: L C R, Side: L R, LFE
Sampling rate : 48.0 KHz
<div class="sp-wrap">
<div class="sp-head folded">Внимание! Раздача ведётся путём добавления новых серий.</div>
<div class="sp-body">Внимание! Раздача ведётся путём добавления новых серий; при каждом добавлении создётся новый торрент. Чтобы начать докачку новой серии, пользователям необходимо сделать следующее:

Остановить скачивание.
Удалить старый торрент у себя из клиента (старые серии удалять не надо).
Скачать новый торрент и запустить его у себя в клиенте вместо старого, при этом указать клиенту путь в старую папку куда и должно происходить скачивание новых серий.

Ваш клиент при этом должен произвести хеширование (проверку) старой папки (если не производит сам - помогите ему сделать это), и будет докачивать только те серии которых у вас ещё нет. Старые серии при этом не удаляются, а продолжают раздаваться!
Eсли вы уже удалили старые серии, то предотвратить повторную закачку старых серий можно, отжав галочку в соответсвующих местах при запуске нового торрента. По возможности, желательно не удалять старые серии как можно дольше чтобы релизёр не столько продолжал раздавать старые серии, а смог сконцентрироваться на новых. Как закачать отдельный файл из торрента или докачать ранее пропущенные файлы торрента! </div>
</div>

Трекер:  [ 20-Мар-2017 22:30 ]

  

Скачать .torrent

Размер .torrent файла 18 KB


Размер: 1.79 GB
Хэш (hash) релиза: 4ccf1ef383547da4d74393994605360e9660ec7b
Подписка на обновления:

Торренты, похожие на В пустыне смерти Into the Badlands скачать торрент

Форум Название Автор Размер S L Добавлен
Зарубежные сериалы ·· В пустыне смерти / Into the Badlands / Сезон: 2 / Серии: 1-6 из 10 (Дэвид Добкин) [2017, США, Боевик, драма, приключения, экранизация, WEB-DLRip] DVO (Gears Media) + Original Galfimbul 25384121762.36 GB 0 0 1493293859

14:50

27-Апр-17

Зарубежные сериалы ·· В пустыне смерти / Into the Badlands / Сезон: 1 / Серии: 1-2 из 6 (Дэвид Добкин) [2015, Боевик, драма, приключения, экранизация, WEB-DL] DVO (Gears Media) + Origina1 Galfimbul 30455265972.84 GB 0 0 1450127470

00:11

15-Дек-15

Зарубежные сериалы ·· В пустыне смерти / Into the Badlands / Сезон: 1 / Серии: 1-2 из 6 (Дэвид Добкин) [2015, боевик, приключения, WEB-DL 1080p] MVO (Alternative Production) + Original Galfimbul 38135734393.55 GB 0 0 1448311644

23:47

23-Ноя-15

Зарубежные сериалы ·· В пустыне смерти / В Бесплодных Землях / Into The Badlands / Сезон: 1 / Серии: 1-2 из 6 (David Dobkin) [2015, Боевик, драма, приключения, WEB-DL 720p] DVO (kiitos) Galfimbul 27950311202.6 GB 0 0 1448393503

22:31

24-Ноя-15

Зарубежные сериалы ·· В пустыне смерти / В Бесплодных Землях / Into The Badlands / Сезон: 1 / Серии: 1-2 из 6 (David Dobkin) [2015, Боевик, драма, приключения, WEB-DLRip] DVO (kiitos) Galfimbul 10506383361002 MB 0 0 1448391841

22:04

24-Ноя-15

Еще никто не оставлял запись к записи скачать торрент В пустыне смерти Into the Badlands . Будь первым!

!Обратная связь