Скачать через торрент Железный кулак Marvels Iron Fist Фильм бесплатно в хорошем качестве torrent

Скачивайте на UnionPeer.org фильмы через торрент без регистрации. Новинки кино в хорошем качестве через торрент. На UnionPeer.org можно скачать через торрент фильмы 2014 и 2015 годов. Самые новые фильмы.

Скачать торрент Железный кулак Marvels Iron Fist бесплатно через .torrent фильм мультфильм сериал

Если у вас наблюдаются проблемы со скриншотами, переходом по ссылками, скачиванием торрентов - проблемы в блокировщике рекламы AdBlock. #хорошегоДня!


Статистика раздачи
Размер:  5.02 GB   |    Зарегистрирован:  6 месяцев   |    .torrent скачан:  85 раз   |   
Раздают:  1  
   
Загрузка...
 
Автор Сообщение

Galfimbul

avatar Galfimbul



Железный кулак / Marvel's Iron Fist

Год выпуска: 2017
Страна: США | USA
Жанр: фантастика, боевик, триллер, криминал
Продолжительность: ~00:55:00
Перевод: Профессиональный (многоголосый закадровый) | NewStudio
Режиссер: Джон Дал, Фэррен Блэкберн, Ута Бризвитц
В ролях: Финн Джонс, Джессика Хенвик, Джессика Строуп, Розарио Доусон, Людовик Куто, Крэйг Джерати, Тихуана Рикс и др.
Описание: Встречайте нового героя! Он уже идет босиком по Нью-Йорку и радуется жизни! Это Денни Рэнд — Железный кулак. Его оптимизм подбодрил бы даже Джессику Джонс, а кошачья грация оставляет позади самого Мэтта Мёрдока. А ещё у него есть то, чего не хватает известным нам супер-героям (хотя они не жалуются), — деньги и время. Дело за малым — доказать, что он пропавший миллиардер, и победить много-палую Руку. И надежда есть — достаточно сказать, что к нему хорошо относится даже Джери Хогарт. как можно снять не разочаровывающего злодея, после великолепных образов, воплощенных Д'Онофрио и Теннантом. Однако сценаристы сумели найти интересное и многогранное решение.
IMDB: 8.2/10 (12,488 votes)
КиноПоиск: 7.2/10 (0,873 голосов)
Качество видео: WEBRip
Формат: AVI
Видео: 720x400 at 23.976 fps, XviD, ~1350 kbps avg,
Аудио Rus: MP3, 48 kHz, 2 ch, 128 kbps, CBR |Многоголосый закадровый, NewStudio|
Аудио Eng: MP3, 48 kHz, 2 ch, 128 kbps, CBR
Cубтитры: нет
Реклама: нет
✘Семпл✘

01. - 17.03.2017 - Снег идущий на пути / Snow Gives Way
02. - 17.03.2017 - Ястреб-Ястреб взлетает / Shadow Hawk Takes Flight
03. - 17.03.2017 - Грохочущий пушечный удар / Rolling Thunder Cannon Punch
04. - 17.03.2017 - Восемь приемов, горящего кулака  / Eight Diagram Dragon Palm
05. - 17.03.2017 - Под листьями Лотоса / Under Leaf Pluck Lotus
06. - 17.03.2017 - Бессмертные выходят из пещеры / Immortal Emerges from Cave
07. - 17.03.2017 - Срубленное дерево под корень / Felling Tree with Roots
08. - 17.03.2017 - Позволение многим увечьям / The Blessing of Many Fractures
09. - 17.03.2017 - Владыка всей Агонии / The Mistress of All Agonies
10. - 17.03.2017 - Черный тигр, похититель сердец / Black Tiger Steals Heart
11. - 17.03.2017 - Обратно в седло / Lead Horse Back to Stable
12. - 17.03.2017 - Бар Большого Босса / Bar the Big Boss
13. - 17.03.2017 - Дракон играющий с огнем / Dragon Plays with Fire

Общее
Полное имя                               : X:\ATorrent\Iron Fist (S01) NS\Iron.Fist.S01E01.XviD.NewStudio.(qqss44).avi
Формат                                   : AVI
Формат/Информация                        : Audio Video Interleave
Размер файла                             : 651 Мбайт
Продолжительность                        : 56 м.
Общий поток                              : 1620 Кбит/сек
Программа кодирования                    : VirtualDubMod 1.5.10.3 | www.virtualdub-fr.org || (build 2550/release)
Библиотека кодирования                   : VirtualDubMod build 2550/release

Видео
Идентификатор                            : 0
Формат                                   : MPEG-4 Visual
Профиль формата                          : Advanced Simple@L5
Параметр BVOP формата                    : 2
Параметр QPel формата                    : Нет
Параметр GMC формата                     : Без точки перехода
Параметр матрицы формата                 : Выборочная
Идентификатор кодека                     : XVID
Идентификатор кодека/Подсказка           : XviD
Продолжительность                        : 56 м.
Битрейт                                  : 1350 Кбит/сек
Ширина                                   : 720 пикселей
Высота                                   : 400 пикселей
Соотношение сторон                       : 16:9
Частота кадров                           : 23,976 (23976/1000) кадра/сек
Цветовое пространство                    : YUV
Субдискретизация насыщенности            : 4:2:0
Битовая глубина                          : 8 бит
Тип развёртки                            : Прогрессивная
Метод сжатия                             : С потерями
Бит/(Пиксели*Кадры)                      : 0.195
Размер потока                            : 542 Мбайт (83%)
Библиотека кодирования                   : XviD 73

Аудио #1
Идентификатор                            : 1
Формат                                   : MPEG Audio
Версия формата                           : Version 1
Профиль формата                          : Layer 3
Режим                                    : Joint stereo
Расширение режима                        : MS Stereo
Идентификатор кодека                     : 55
Идентификатор кодека/Подсказка           : MP3
Продолжительность                        : 56 м.
Вид битрейта                             : Постоянный
Битрейт                                  : 128 Кбит/сек
Каналы                                   : 2 канала
Частота                                  : 48,0 КГц
Метод сжатия                             : С потерями
Размер потока                            : 51,4 Мбайт (8%)
Выравнивание                             : Соединение по промежуткам
Продолжительность промежутка             : 42  мс. (1,00 видеокадр)
Время предзагрузки промежутка            : 504  мс.

Аудио #2
Идентификатор                            : 2
Формат                                   : MPEG Audio
Версия формата                           : Version 1
Профиль формата                          : Layer 3
Режим                                    : Joint stereo
Расширение режима                        : MS Stereo
Идентификатор кодека                     : 55
Идентификатор кодека/Подсказка           : MP3
Продолжительность                        : 56 м.
Вид битрейта                             : Постоянный
Битрейт                                  : 128 Кбит/сек
Каналы                                   : 2 канала
Частота                                  : 48,0 КГц
Метод сжатия                             : С потерями
Размер потока                            : 51,4 Мбайт (8%)
Выравнивание                             : Соединение по промежуткам
Продолжительность промежутка             : 42  мс. (1,00 видеокадр)
Время предзагрузки промежутка            : 504  мс.



[b]✘Внимание✘


Внимание! Раздача ведётся путём добавления новых серий; при каждом добавлении создётся новый торрент. Чтобы начать докачку новой серии, пользователям необходимо сделать следующее:
(1) остановить скачивание,
(2) удалить старый торрент у себя из клиента (старые серии удалять не надо),
(3) скачать новый торрент и запустить его у себя в клиенте вместо старого, при этом указать клиенту путь в старую папку куда и должно происходить скачивание новых серий.
Ваш клиент при этом должен произвести хеширование (проверку) старой папки (если не производит сам - помогите ему сделать это), и будет докачивать только те серии которых у вас ещё нет. Старые серии при этом не удаляются, а продолжают раздаваться!
Eсли вы уже удалили старые серии, то предотвратить повторную закачку старых серий можно, отжав галочку в соответсвующих местах при запуске нового торрента.


Трекер:  [ 20-Мар-2017 22:30 ]

  

Скачать .torrent

Размер .torrent файла 26 KB


Размер: 5.02 GB
Хэш (hash) релиза: 915adb3244263a7e7bcebb15d03886093b379b62
Подписка на обновления:

Торренты, похожие на Железный кулак Marvels Iron Fist скачать торрент

Форум Название Автор Размер S L Добавлен
Зарубежные сериалы ·· Железный кулак / Marvel's Iron Fist / Сезон: 1 / Серии: 1-8 из 13 (Джон Дал, Фэррен Блэкберн) [2017, США, фантастика, боевик, триллер, криминал, WEBRip] MVO (LostFilm) + Original Galfimbul 53865963525.02 GB 0 0 1492273161

19:19

15-Апр-17

Зарубежные сериалы ·· Железный кулак / Marvel's Iron Fist / Сезон: 1 / Серии: 1-8 из 13 (Джон Дал, Фэррен Блэкберн) [2017, США, Фантастика, боевик, криминал, приключения, WEBRip] MVO (Jaskier) + Original Galfimbul 56141045765.23 GB 0 0 1491171385

01:16

3-Апр-17

Зарубежные сериалы ·· Железный кулак / Marvel's Iron Fist / Сезон: 1 / Серии: 1-8 из 13 (Джон Дал, Фэррен Блэкберн, Ута Бризвитц) [2017, США, Фантастика, боевик, триллер, криминал, WEBRip 720p] Original + Rus Sub (PhysKids) Galfimbul 1488547571613.86 GB 0 0 1490288087

19:54

23-Мар-17

Зарубежные сериалы ·· Железный кулак / Marvel's Iron Fist / Сезон: 1 / Серии: 1-8 из 13 (Джон Дал, Фэррен Блэкберн) [2017, США, фантастика, боевик, триллер, криминал, WEBRip 720p] MVO (NewStudio) + Original + Subs (Eng) Galfimbul 2632522250924.52 GB 0 0 1490037835

22:23

20-Мар-17

Зарубежные сериалы ·· Железный кулак / Marvel's Iron Fist / Сезон: 1 / Серии: 1-8 из 13 (Джон Дал, Фэррен Блэкберн) [2017, США, фантастика, боевик, триллер, криминал, WEBRip 1080p] MVO (NewStudio) + Original + Subs (Eng) Galfimbul 5583721110552 GB 0 0 1490024579

18:42

20-Мар-17

Еще никто не оставлял запись к записи скачать торрент Железный кулак Marvels Iron Fist . Будь первым!

!Обратная связь