Скачать через торрент Железный кулак Marvels Iron Fist Фильм бесплатно в хорошем качестве torrent

Скачивайте на UnionPeer.org фильмы через торрент без регистрации. Новинки кино в хорошем качестве через торрент. На UnionPeer.org можно скачать через торрент фильмы 2014 и 2015 годов. Самые новые фильмы.

Скачать торрент Железный кулак Marvels Iron Fist бесплатно через .torrent фильм мультфильм сериал

Статистика раздачи
Размер:  24.52 GB   |    Зарегистрирован:  2 месяца 7 дней   |    .torrent скачан:  40 раз   |   
Раздают:  1  
   
 
Автор Сообщение

Galfimbul

avatar Galfimbul



Железный кулак / Marvel's Iron Fist

Год выпуска: 2017
Страна: США | USA
Жанр: фантастика, боевик, триллер, криминал
Продолжительность: ~00:55:00
Перевод: Профессиональный (многоголосый закадровый) | NewStudio
Режиссер: Джон Дал, Фэррен Блэкберн, Ута Бризвитц
В ролях: Финн Джонс, Джессика Хенвик, Джессика Строуп, Розарио Доусон, Людовик Куто, Крэйг Джерати, Тихуана Рикс и др.
Описание: Встречайте нового героя! Он уже идет босиком по Нью-Йорку и радуется жизни! Это Денни Рэнд — Железный кулак. Его оптимизм подбодрил бы даже Джессику Джонс, а кошачья грация оставляет позади самого Мэтта Мёрдока. А ещё у него есть то, чего не хватает известным нам супер-героям (хотя они не жалуются), — деньги и время. Дело за малым — доказать, что он пропавший миллиардер, и победить много-палую Руку. И надежда есть — достаточно сказать, что к нему хорошо относится даже Джери Хогарт. как можно снять не разочаровывающего злодея, после великолепных образов, воплощенных Д'Онофрио и Теннантом. Однако сценаристы сумели найти интересное и многогранное решение.
IMDB: 8.2/10 (12,488 votes)
КиноПоиск: 7.2/10 (0,873 голосов)
Качество видео: WEBRip
Формат: AVI
Видео: 1280x720 at 23.976 fps, X264, ~7000 kbps avg,
Аудио Rus: 48 kHz, AC3, 3/2 (L,C,R,l,r) + LFE ch, ~384.00 kbps avg |Многоголосый закадровый, NewStudio|
Аудио Eng: 48 kHz, AC3, 3/2 (L,C,R,l,r) + LFE ch, ~384.00 kbps avg
Cубтитры: English
Реклама: нет
✘Семпл✘

01. - 17.03.2017 - Снег идущий на пути / Snow Gives Way
02. - 17.03.2017 - Ястреб-Ястреб взлетает / Shadow Hawk Takes Flight
03. - 17.03.2017 - Грохочущий пушечный удар / Rolling Thunder Cannon Punch
04. - 17.03.2017 - Восемь приемов, горящего кулака  / Eight Diagram Dragon Palm
05. - 17.03.2017 - Под листьями Лотоса / Under Leaf Pluck Lotus
06. - 17.03.2017 - Бессмертные выходят из пещеры / Immortal Emerges from Cave
07. - 17.03.2017 - Срубленное дерево под корень / Felling Tree with Roots
08. - 17.03.2017 - Позволение многим увечьям / The Blessing of Many Fractures
09. - 17.03.2017 - Владыка всей Агонии / The Mistress of All Agonies
10. - 17.03.2017 - Черный тигр, похититель сердец / Black Tiger Steals Heart
11. - 17.03.2017 - Обратно в седло / Lead Horse Back to Stable
12. - 17.03.2017 - Бар Большого Босса / Bar the Big Boss
13. - 17.03.2017 - Дракон играющий с огнем / Dragon Plays with Fire

Общее
Уникальный идентификатор                 : 215805330182649515173608545589223538525 (0xA25A9841E9146AEF9AC74806CEC0BF5D)
Полное имя                               : X:\ATorrent\Iron Fist (S01) NS 720\Iron.Fist.S01E01.WEB.720p.NewStudio.(qqss44).mkv
Формат                                   : Matroska
Версия формата                           : Version 2
Размер файла                             : 3,03 Гбайт
Продолжительность                        : 56 м.
Общий поток                              : 7716 Кбит/сек
Дата кодирования                         : UTC 2017-03-19 23:47:27
Программа кодирования                    : mkvmerge v5.8.0 ('No Sleep / Pillow') built on Sep  2 2012 15:37:04
Библиотека кодирования                   : libebml v1.2.3 + libmatroska v1.3.0

Видео
Идентификатор                            : 1
Формат                                   : AVC
Формат/Информация                        : Advanced Video Codec
Профиль формата                          : High@L4.1
Параметр CABAC формата                   : Да
Параметр ReFrames формата                : 9 кадров
Идентификатор кодека                     : V_MPEG4/ISO/AVC
Продолжительность                        : 56 м.
Битрейт                                  : 6794 Кбит/сек
Ширина                                   : 1280 пикселей
Высота                                   : 720 пикселей
Соотношение сторон                       : 16:9
Режим частоты кадров                     : Постоянный
Частота кадров                           : 23,976 (24000/1001) кадра/сек
Цветовое пространство                    : YUV
Субдискретизация насыщенности            : 4:2:0
Битовая глубина                          : 8 бит
Тип развёртки                            : Прогрессивная
Бит/(Пиксели*Кадры)                      : 0.307
Размер потока                            : 2,67 Гбайт (88%)
Библиотека кодирования                   : x264 core 148 r2638 7599210
Настройки программы                      : cabac=1 / ref=9 / deblock=1:-3:-3 / analyse=0x3:0x133 / me=umh / subme=10 / psy=1 / psy_rd=1.00:0.00 / mixed_ref=1 / me_range=48 / chroma_me=1 / trellis=2 / 8x8dct=1 / cqm=0 / deadzone=21,11 / fast_pskip=0 / chroma_qp_offset=-2 / threads=16 / lookahead_threads=2 / sliced_threads=0 / nr=0 / decimate=0 / interlaced=0 / bluray_compat=0 / constrained_intra=0 / bframes=9 / b_pyramid=0 / b_adapt=2 / b_bias=0 / direct=3 / weightb=1 / open_gop=0 / weightp=2 / keyint=240 / keyint_min=23 / scenecut=40 / intra_refresh=0 / rc=crf / mbtree=0 / crf=19.0 / qcomp=0.60 / qpmin=10 / qpmax=51 / qpstep=4 / ip_ratio=1.40 / pb_ratio=1.30 / aq=3:0.70
Default                                  : Да
Forced                                   : Нет

Аудио #1
Идентификатор                            : 2
Формат                                   : AC-3
Формат/Информация                        : Audio Coding 3
Расширение режима                        : CM (complete main)
Параметр Endianness формата              : Big
Идентификатор кодека                     : A_AC3
Продолжительность                        : 56 м.
Вид битрейта                             : Постоянный
Битрейт                                  : 384 Кбит/сек
Каналы                                   : 6 каналов
Расположение каналов                     : Front: L C R, Side: L R, LFE
Частота                                  : 48,0 КГц
Частота кадров                           : 31,250 кадров/сек (1536 spf)
Метод сжатия                             : С потерями
Размер потока                            : 154 Мбайт (5%)
Язык                                     : Russian
Default                                  : Да
Forced                                   : Нет

Аудио #2
Идентификатор                            : 3
Формат                                   : AC-3
Формат/Информация                        : Audio Coding 3
Расширение режима                        : CM (complete main)
Параметр Endianness формата              : Big
Идентификатор кодека                     : A_AC3
Продолжительность                        : 56 м.
Вид битрейта                             : Постоянный
Битрейт                                  : 384 Кбит/сек
Каналы                                   : 6 каналов
Расположение каналов                     : Front: L C R, Side: L R, LFE
Частота                                  : 48,0 КГц
Частота кадров                           : 31,250 кадров/сек (1536 spf)
Метод сжатия                             : С потерями
Задержка видео                           : 5 мс.
Размер потока                            : 154 Мбайт (5%)
Язык                                     : English
Default                                  : Нет
Forced                                   : Нет

Текст
Идентификатор                            : 4
Формат                                   : UTF-8
Идентификатор кодека                     : S_TEXT/UTF8
Идентификатор кодека/Информация          : UTF-8 Plain Text
Язык                                     : English
Default                                  : Нет
Forced                                   : Нет



[b]✘Внимание✘


Внимание! Раздача ведётся путём добавления новых серий; при каждом добавлении создётся новый торрент. Чтобы начать докачку новой серии, пользователям необходимо сделать следующее:
(1) остановить скачивание,
(2) удалить старый торрент у себя из клиента (старые серии удалять не надо),
(3) скачать новый торрент и запустить его у себя в клиенте вместо старого, при этом указать клиенту путь в старую папку куда и должно происходить скачивание новых серий.
Ваш клиент при этом должен произвести хеширование (проверку) старой папки (если не производит сам - помогите ему сделать это), и будет докачивать только те серии которых у вас ещё нет. Старые серии при этом не удаляются, а продолжают раздаваться!
Eсли вы уже удалили старые серии, то предотвратить повторную закачку старых серий можно, отжав галочку в соответсвующих местах при запуске нового торрента.


Трекер:  [ 20-Мар-2017 21:30 ]

  

Скачать .torrent

Размер .torrent файла 123 KB


Размер: 24.52 GB
Хэш (hash) релиза: f15b0097caf066b75e2cc10c2f023a4fb7f27d7b
Подписка на обновления:

Торренты, похожие на Железный кулак Marvels Iron Fist скачать торрент

Форум Название Автор Размер S L Добавлен
Зарубежные сериалы ·· Железный кулак / Marvel's Iron Fist / Сезон: 1 / Серии: 1-8 из 13 (Джон Дал, Фэррен Блэкберн) [2017, США, фантастика, боевик, триллер, криминал, WEBRip] MVO (LostFilm) + Original Galfimbul 53865963525.02 GB 2 0 1492273161

19:19

15-Апр-17

Зарубежные сериалы ·· Железный кулак / Marvel's Iron Fist / Сезон: 1 / Серии: 1-8 из 13 (Джон Дал, Фэррен Блэкберн) [2017, США, Фантастика, боевик, криминал, приключения, WEBRip] MVO (Jaskier) + Original Galfimbul 56141045765.23 GB 0 0 1491171385

01:16

3-Апр-17

Зарубежные сериалы ·· Железный кулак / Marvel's Iron Fist / Сезон: 1 / Серии: 1-8 из 13 (Джон Дал, Фэррен Блэкберн, Ута Бризвитц) [2017, США, Фантастика, боевик, триллер, криминал, WEBRip 720p] Original + Rus Sub (PhysKids) Galfimbul 1488547571613.86 GB 0 0 1490288087

19:54

23-Мар-17

Зарубежные сериалы ·· Железный кулак / Marvel's Iron Fist / Сезон: 1 / Серии: 1-8 из 13 (Джон Дал, Фэррен Блэкберн) [2017, США, фантастика, боевик, триллер, криминал, WEBRip] MVO (NewStudio) + Original Galfimbul 53867089925.02 GB 0 0 1490039563

22:52

20-Мар-17

Зарубежные сериалы ·· Железный кулак / Marvel's Iron Fist / Сезон: 1 / Серии: 1-8 из 13 (Джон Дал, Фэррен Блэкберн) [2017, США, фантастика, боевик, триллер, криминал, WEBRip 1080p] MVO (NewStudio) + Original + Subs (Eng) Galfimbul 5583721110552 GB 0 0 1490024579

18:42

20-Мар-17

Еще никто не оставлял запись к записи скачать торрент Железный кулак Marvels Iron Fist . Будь первым!

!Обратная связь