Скачать через торрент Мата Хари Серии: 1-2 из 12 Фильм бесплатно в хорошем качестве torrent

Скачивайте на UnionPeer.org фильмы через торрент без регистрации. Новинки кино в хорошем качестве через торрент. На UnionPeer.org можно скачать через торрент фильмы 2014 и 2015 годов. Самые новые фильмы.

Скачать торрент Мата Хари Серии: 1-2 из 12 бесплатно через .torrent фильм мультфильм сериал

Если у вас наблюдаются проблемы со скриншотами, переходом по ссылками, скачиванием торрентов - проблемы в блокировщике рекламы AdBlock. #хорошегоДня!


Статистика раздачи
Размер:  1.18 GB   |    Зарегистрирован:  4 месяца   |    .torrent скачан:  54 раза   |   
Раздают:  1  
   
Загрузка...
 
Автор Сообщение

Galfimbul

avatar Galfimbul


Мата Хари

Год выпуска: 2016
Производство: Star Media по заказу Первого канала
Жанр: Биография, драма, исторический фильм
Продолжительность: 00:50:00
Субтитры: нет
Режиссёр: Дени Берри, Джулиус Берг
В ролях: Ваина Джоканте, Ойсин Стак, Максим Матвеев, Рутгер Хауэр, Йехезкель Лазаров, Джон Корбетт, Алексей Гуськов, Раде Шербеджия, Нуно Лопес, Крис Мерфи, Ксения Раппопорт, Виктория Исакова, Кристофер Ламберт, Александр Петров (III), Светлана Ходченкова, Мария Фомина, Макар Запорожский, Александр Михайлов, Дмитрий Мальцев (III), Дарья Мельникова, Жорж Девдариани, Евгений Шибалко, Пётр Нестеров, Сергей Самородов, Артём Цыпин, Александр Хошабаев, Иван Рудаков

Описание: Биографическая драма о жизни Маргареты Зелле, более известной как Мата Хари.

Маргарет Мак-Леод, преследуемая своим бывшим мужем, лишается опеки над дочерью и брошена на произвол судьбы, не имея никаких средств к существованию. Она становится танцовщицей, отчаявшись найти какой-либо другой заработок.
Под псевдонимом Мата Хари, Маргарет становится любимицей европейской элиты. Для неё открываются двери роскошных особняков и вилл, каждое выступление производит невероятный фурор. Но грядёт Первая мировая война, которая навсегда изменит ход истории. И едва ли Мата Хари догадывается, какую роль ей суждено сыграть в предстоящих событиях.
/ Сэмпл
Релиз-группа:
Качество: HDTVRip
Формат: AVI
Видео кодек: XviD
Аудио кодек: AC3
Видео: 720x400 (16:9), 25.000 fps, XviD build 73, 1 600 Kbps, 0.22 bits/pixel
Аудио: 48 kHz, AC3 Dolby Digital, 2 ch, 192 Kbps
Реклама: Нет
General
Complete name : Downloads\Mata Hari.HDTVRip.GeneralFilm\Mata Hari.01.HDTVRip.GeneralFilm.avi
Format : AVI
Format/Info : Audio Video Interleave
File size : 586 MiB
Duration : 45mn 27s
Overall bit rate : 1 801 Kbps
Writing application : VirtualDubMod 1.5.10.3 (build 2550/release)
Writing library : VirtualDubMod build 2550/release
Video #0
ID : 0
Format : MPEG-4 Visual
Format profile : Advanced Simple@L5
Format settings, BVOP : 1
Format settings, QPel : No
Format settings, GMC : No warppoints
Format settings, Matrix : Custom
Codec ID : XVID
Codec ID/Hint : XviD
Duration : 45mn 27s
Bit rate : 1 600 Kbps
Width : 720 pixels
Height : 400 pixels
Display aspect ratio : 16:9
Frame rate : 25.000 fps
Color space : YUV
Chroma subsampling : 4:2:0
Bit depth : 8 bits
Scan type : Progressive
Compression mode : Lossy
Bits/(Pixel*Frame) : 0.222
Stream size : 520 MiB (89%)
Writing library : XviD 73
Audio #1
ID : 1
Format : AC-3
Format/Info : Audio Coding 3
Mode extension : CM (complete main)
Format settings, Endianness : Big
Codec ID : 2000
Duration : 45mn 27s
Bit rate mode : Constant
Bit rate : 192 Kbps
Channel(s) : 2 channels
Channel positions : Front: L R
Sampling rate : 48.0 KHz
Bit depth : 16 bits
Compression mode : Lossy
Stream size : 62.4 MiB (11%)
Alignment : Split accross interleaves
Interleave, duration : 40 ms (1.00 video frame)
Interleave, preload duration : 500 ms
(1) остановить скачивание,
(2) удалить старый торрент у себя из клиента (старые серии удалять не надо),
(3) скачать новый торрент и запустить его у себя в клиенте вместо старого, при этом указать клиенту путь в старую папку куда и должно происходить скачивание новых серий.
Ваш клиент при этом должен произвести хеширование (проверку) старой папки (если не производит сам - помогите ему сделать это), и будет докачивать только те серии которых у вас ещё нет. Старые серии при этом не удаляются, а продолжают раздаваться!
Eсли вы уже удалили старые серии, то предотвратить повторную закачку старых серий можно, отжав галочку в соответсвующих местах при запуске нового торрента. По возможности, желательно не удалять старые серии как можно дольше чтобы релизёр не столько продолжал раздавать старые серии, а смог сконцентрироваться на новых.


Трекер:  [ 20-Мар-2017 21:30 ]

  

Скачать .torrent

Размер .torrent файла 12 KB


Размер: 1.18 GB
Хэш (hash) релиза: e11a91a6404f347a5aab8e57bdc74eb932f8d2a5
Подписка на обновления:

Еще никто не оставлял запись к записи скачать торрент Мата Хари Серии: 1-2 из 12 . Будь первым!

!Обратная связь