Скачать через торрент Закон каменных джунглей Сезон: 2 Фильм бесплатно в хорошем качестве torrent

Скачивайте на UnionPeer.org фильмы через торрент без регистрации. Новинки кино в хорошем качестве через торрент. На UnionPeer.org можно скачать через торрент фильмы 2014 и 2015 годов. Самые новые фильмы.

Скачать торрент Закон каменных джунглей Сезон: 2 бесплатно через .torrent фильм мультфильм сериал

Если у вас наблюдаются проблемы со скриншотами, переходом по ссылками, скачиванием торрентов - проблемы в блокировщике рекламы AdBlock. #хорошегоДня!


Статистика раздачи
Размер:  4.45 GB   |    Зарегистрирован:  7 месяцев   |    .torrent скачан:  613 раз   |   
Раздают:  1  
   
Загрузка...
 
Автор Сообщение

Galfimbul

avatar Galfimbul


Закон каменных джунглей

Год выпуска: 2017
Производство: Россия, "СинеПро"
Жанр: Детектив, драма, криминал, молодежный
Продолжительность: ~ 00:46:00
Режиссёр: Игорь Хомский, Иван Бурлаков

В ролях: Аристарх Венес, Никита Павленко, Игорь Огурцов, Александр Мельников, Даниил Вахрушев, Владимир Сычёв, Александр Петров (II), Юлия Хлынина, Елизавета Кононова, Дарья Руденок, Светлана Садковская, Роман Синицын, Дмитрий Власкин, Руслан Братов, Сергей Глушко, Мария Сурова, Андрей Коровниченко, Дмитрий Поддубный, Лариса Никитина, Александр Боровиков, Татьяна Конышева

Описание: Четыре парня с окраины Москвы решают заработать легких денег — перегнать машину с краденым грузом внутри. Не особо задумываясь о последствиях, они совершают одну ошибку за другой, и очень скоро у них появляются серьезные проблемы с законом. Теперь пути назад нет и, чтобы выжить, четырем друзьям нужно во что бы то ни стало держаться вместе.

Все раздачи сериала
Сэмпл
Релиз от Files-x

Качество: SATRip
Формат: AVI
Видео кодек: Xvid
Аудио кодек: AC3
Видео: 720x320 (2.25:1), 25 fps, XviD build 73 ~1584 kbps avg, 0.28 bit/pixel
Аудио: 48 kHz, AC3 Dolby Digital, 2/0 (L,R) ch, ~192 kbps
Раздача ведётся путём добавления новых серий, при каждом добавлении создаётся новый торрент. Чтобы начать докачку новой серии, пользователям необходимо сделать следующее:

- Остановить скачивание.
- Удалить старый торрент у себя из клиента (старые серии удалять не надо).
- Скачать новый торрент и запустить его у себя в клиенте вместо старого, при этом указать клиенту путь в старую папку куда и должно происходить скачивание новых серий.

Ваш клиент при этом должен произвести хеширование (проверку) старой папки (если не производит сам - помогите ему сделать это), и будет докачивать только те серии которых у вас ещё нет. Старые серии при этом не удаляются, а продолжают раздаваться!
Если вы уже удалили старые серии, то предотвратить повторную закачку старых серий можно, отжав галочку в соответствующих местах при запуске нового торрента. По возможности, желательно не удалять старые серии как можно дольше, чтобы релизер не столько продолжал раздавать старые серии, а смог сконцентрироваться на новых.
ОбщееПолное имя : D:\Торрент\01.Zakon.kamennych.dzunglej.2016.SATRip.Files-x.aviФормат : AVIФормат/Информация : Audio Video InterleaveРазмер файла : 592 МбайтПродолжительность : 46 м. 20 с.Общий поток : 1786 Кбит/секПрограмма кодирования : VirtualDubMod 1.5.10.2 (build 2542/release)Библиотека кодирования : VirtualDubMod build 2542/release

ВидеоИдентификатор : 0Формат : MPEG-4 VisualПрофиль формата : Advanced Simple@L5Параметр BVOP формата : 1Параметр QPel формата : НетПараметр GMC формата : Без точки переходаПараметр матрицы формата : ВыборочнаяИдентификатор кодека : XVIDИдентификатор кодека/Подсказка : XviDПродолжительность : 46 м. 20 с.Битрейт : 1584 Кбит/секШирина : 720 пикселейВысота : 320 пикселейСоотношение сторон : 2,25:1Частота кадров : 25,000 кадров/секЦветовое пространство : YUVСубдискретизация насыщенности : 4:2:0Битовая глубина : 8 битТип развёртки : ПрогрессивнаяМетод сжатия : С потерямиБит/(Пиксели*Кадры) : 0.275Размер потока : 525 Мбайт (89%)Библиотека кодирования : XviD 73

АудиоИдентификатор : 1Формат : AC-3Формат/Информация : Audio Coding 3Расширение режима : CM (complete main)Параметр Endianness формата : BigИдентификатор кодека : 2000Продолжительность : 46 м. 20 с.Вид битрейта : ПостоянныйБитрейт : 192 Кбит/секКаналы : 2 каналаРасположение каналов : Front: L RЧастота : 48,0 КГцЧастота кадров : 31,250 кадров/сек (1536 spf)Битовая глубина : 16 битМетод сжатия : С потерямиРазмер потока : 63,6 Мбайт (11%)Выравнивание : Разделение по промежуткамПродолжительность промежутка : 40 мс. (1,00 видеокадр)Время предзагрузки промежутка : 500 мс.



Трекер:  [ 30-Мар-2017 23:00 ]

  

Скачать .torrent

Размер .torrent файла 23 KB


Размер: 4.45 GB
Хэш (hash) релиза: 5dcd8c3bb5ef0c20360de8791459a5945642a48d
Подписка на обновления:

bot

Раздача обновлена!
Перекачайте торрент-файл.

bot

Раздача обновлена!
Перекачайте торрент-файл.

bot

Раздача обновлена!
Перекачайте торрент-файл.

bot

Раздача обновлена!
Перекачайте торрент-файл.

bot

Раздача обновлена!
Перекачайте торрент-файл.

bot

Раздача обновлена!
Перекачайте торрент-файл.

bot

Раздача обновлена!
Перекачайте торрент-файл.

Хотите добавить комментарий к записи скачать торрент Закон каменных джунглей Сезон: 2

!Обратная связь