Скачать через торрент Мата Хари Сезон: 1 Фильм бесплатно в хорошем качестве torrent

Скачивайте на UnionPeer.org фильмы через торрент без регистрации. Новинки кино в хорошем качестве через торрент. На UnionPeer.org можно скачать через торрент фильмы 2014 и 2015 годов. Самые новые фильмы.

Скачать торрент Мата Хари Сезон: 1 бесплатно через .torrent фильм мультфильм сериал

Если у вас наблюдаются проблемы со скриншотами, переходом по ссылками, скачиванием торрентов - проблемы в блокировщике рекламы AdBlock. #хорошегоДня!


Статистика раздачи
Размер:  720 MB   |    Зарегистрирован:  8 месяцев   |    .torrent скачан:  47 раз   |   
Раздают:  1  
   
Загрузка...
 
Автор Сообщение

Galfimbul

avatar Galfimbul


Мата Хари

Год выпуска: 2016
Производство: Россия, Португалия, Украина
Жанр: история, драма
Продолжительность: 00:51:57.360
Субтитры: нет

Режиссёр: Денни Берри, Джулиус Берг, Ольга Ряшина

В ролях: Ваина Джоканте (Maтa Хари), Ошин Стак (Габриэль Астрюк), Джон Корбетт (Рудольф МакЛеод), Ехезкель Лазаров (граф Кастелло), Максим Матвеев (Владимир Маслов), Виктория Исакова (Лидия Кириевская), Ксения Раппопорт (Элизабет Шрагмюллер), Кристофер Ламберт (Густав Крамер), Алексей Гуськов (Жорж Ладу), Рутгер Хауэр (судья Стольбаккен), Жерар Депардье (отец Бернард), Анатолий Лобоцкий (Молье), Нуно Лопеш (Максимилиан Ридох), Светлана Ходченкова (Златка Дженич), Раде Шербеджия (Гиме), Елена Север (Тильда), Александр Петров (Матье), Александр Михайлов (Семихин) и другие

Описание: Маргарет Мак-Леод, преследуемая своим бывшим мужем, лишается опеки над дочерью и брошена на произвол судьбы, не имея никаких средств к существованию. Она становится танцовщицей, отчаявшись найти какой-либо другой заработок.

Под псевдонимом Мата Хари, Маргарет становится любимицей европейской элиты. Для неё открываются двери роскошных особняков и вилл, каждое выступление производит невероятный фурор. Но грядёт Первая мировая война, которая навсегда изменит ход истории.

И едва ли Мата Хари догадывается, какую роль ей суждено сыграть в предстоящих событиях.

Реклама: Нет
Все раздачи сериала: ...5375751
Сэмпл: http://multi-up.com/1146085

Качество: SATRip
Формат: AVI
Видео кодек: XviD
Аудио кодек: MP3
Видео: M704x448 (1.57:1), 25 fps, XviD build 50 ~1799 kbps avg, 0.23 bit/pixel
Аудио: 48 kHz, MPEG Layer 3, 2 ch, ~128.00 kbps avg
Формат : AVI
Формат/Информация : Audio Video Interleave
Размер файла : 720 Мбайт
Продолжительность : 51 м.
Общий поток : 1938 Кбит/сек
Программа кодирования : VirtualDubMod 1.5.10.3 | www.virtualdub-fr.org || (build 2550/release)
Библиотека кодирования : VirtualDubMod build 2550/release

Видео
Идентификатор : 0
Формат : MPEG-4 Visual
Профиль формата : Advanced Simple@L5
Параметр BVOP формата : 2
Параметр QPel формата : Нет
Параметр GMC формата : Без точки перехода
Параметр матрицы формата : Default (H.263)
Идентификатор кодека : XVID
Идентификатор кодека/Подсказка : XviD
Продолжительность : 51 м.
Битрейт : 1800 Кбит/сек
Ширина : 704 пикселя
Высота : 448 пикселей
Соотношение сторон : 16:10
Частота кадров : 25,000 кадров/сек
Цветовое пространство : YUV
Субдискретизация насыщенности : 4:2:0
Битовая глубина : 8 бит
Тип развёртки : Прогрессивная
Метод сжатия : С потерями
Бит/(Пиксели*Кадры) : 0.228
Размер потока : 669 Мбайт (93%)
Библиотека кодирования : XviD 1.2.1 (UTC 2008-12-04)

Аудио
Идентификатор : 1
Формат : MPEG Audio
Версия формата : Version 1
Профиль формата : Layer 3
Режим : Joint stereo
Расширение режима : MS Stereo
Идентификатор кодека : 55
Идентификатор кодека/Подсказка : MP3
Продолжительность : 51 м.
Вид битрейта : Постоянный
Битрейт : 128 Кбит/сек
Каналы : 2 канала
Частота : 48,0 КГц
Метод сжатия : С потерями
Размер потока : 47,6 Мбайт (7%)
Выравнивание : Соединение по промежуткам
Продолжительность промежутка : 40 мс. (1,00 видеокадр)
Время предзагрузки промежутка : 504 мс.
Библиотека кодирования : LAME3.99r
Настройки программы : -m j -V 4 -q 9 -lowpass 17 -b 128
Внимание! Раздача ведётся путём добавления новых серий, при каждом добавлении создаётся новый торрент. Чтобы начать докачку новой серии, пользователям необходимо сделать следующее:
- Остановить скачивание.
- Удалить старый торрент у себя из клиента (старые серии удалять не надо).
- Скачать новый торрент и запустить его у себя в клиенте вместо старого, при этом указать клиенту путь в старую папку куда и должно происходить скачивание новых серий.
Ваш клиент при этом должен произвести хеширование (проверку) старой папки (если не производит сам - помогите ему сделать это), и будет докачивать только те серии которых у вас ещё нет. Старые серии при этом не удаляются, а продолжают раздаваться!
Если вы уже удалили старые серии, то предотвратить повторную закачку старых серий можно, отжав галочку в соответствующих местах при запуске нового торрента. По возможности, желательно не удалять старые серии как можно дольше, чтобы релизер не столько продолжал раздавать старые серии, а смог сконцентрироваться на новых.


Трекер:  [ 20-Мар-2017 15:00 ]

  

Скачать .torrent

Размер .torrent файла 14 KB


Размер: 720 MB
Хэш (hash) релиза: 078ebea84d5d2bf47b033603aff85931b7fa3aef
Подписка на обновления:

Еще никто не оставлял запись к записи скачать торрент Мата Хари Сезон: 1 . Будь первым!

!Обратная связь