Скачать через торрент Должок Серии: 1-2 из 2 Фильм бесплатно в хорошем качестве torrent

Скачивайте на UnionPeer.org фильмы через торрент без регистрации. Новинки кино в хорошем качестве через торрент. На UnionPeer.org можно скачать через торрент фильмы 2014 и 2015 годов. Самые новые фильмы.

Скачать торрент Должок Серии: 1-2 из 2 бесплатно через .torrent фильм мультфильм сериал

Если у вас наблюдаются проблемы со скриншотами, переходом по ссылками, скачиванием торрентов - проблемы в блокировщике рекламы AdBlock. #хорошегоДня!


Статистика раздачи
Размер:  1.08 GB   |    Зарегистрирован:  4 месяца 1 день   |    .torrent скачан:  123 раза   |   
Раздают:  2  
   
Загрузка...
 
Автор Сообщение

Galfimbul

avatar Galfimbul


Должок
Год выпуска: 2017
Производство: Амедиа продакшн
Жанр: Драма, комедия
Продолжительность: 00:44:00
Субтитры: нет
Режиссёр: Роман Качанов
В ролях: Владимир Яглыч, Александр Яценко, Иван Агапов, Дмитрий Шаракоис, Эрик Яралов, Лидия Арефьева, Юлия Джулай, Анастасия Чепелюк, Денис Бондарков, Александр Веремюк, Ксения Мон Сор
Описание: Беспринципный и решительный коллектор Игорь Дугин (Владимир Яглыч) может заставить платить любого должника. Он быстро и без лишних действий забирает у банковских неплательщиков всё, что можно продать и тем самым закрыть кредит. Один из его коллег Антон (Эрик Яралов) заключает с Игорем пари, предлагая Дугину взяться за самый безнадежный вариант – дело художника Лопаткина (Александр Яценко). Как профессионал в своём деле, Игорь быстро находит, что с богемного бедняка можно взять старинный драгоценный перстень. Но должник Лопаткин идёт на крайний шаг и проглатывает семейную реликвию. Теперь коллектор, у которого даже на любимую девушку времени почти нет, вынужден не расставаться со своим подопечным до того момента, пока Лопаткин не отдаст свой должок.
/ Сэмпл
Релиз от:
Качество: HDTVRip
Формат: AVI
Видео кодек: XviD
Аудио кодек: AC3
Видео: 720х400 (16:9), 25.000 fps, XviD, 1 528 Kbps, 0.21 Bits/Pixel
Аудио: 48 kHz, AC3 Dolby Digital, 2 ch, 192 Kbps

Реклама: Нет
General
Complete name : Downloads\Dolzhok.2017.HDTVRip.Files-x\01.Dolzhok.2017.HDTVRip.Files-x.avi
Format : AVI
Format/Info : Audio Video Interleave
File size : 550 MiB
Duration : 44mn 29s
Overall bit rate : 1 730 Kbps
Writing application : VirtualDubMod 1.5.10.3 | www.virtualdub-fr.org || (build 2550/release)
Writing library : VirtualDubMod build 2550/release
Video #0
ID : 0
Format : MPEG-4 Visual
Format profile : Advanced Simple@L5
Format settings, BVOP : 1
Format settings, QPel : No
Format settings, GMC : No warppoints
Format settings, Matrix : Custom
Codec ID : XVID
Codec ID/Hint : XviD
Duration : 44mn 29s
Bit rate : 1 528 Kbps
Width : 720 pixels
Height : 400 pixels
Display aspect ratio : 16:9
Frame rate : 25.000 fps
Color space : YUV
Chroma subsampling : 4:2:0
Bit depth : 8 bits
Scan type : Progressive
Compression mode : Lossy
Bits/(Pixel*Frame) : 0.212
Stream size : 486 MiB (88%)
Writing library : XviD 73
Audio #1
ID : 1
Format : AC-3
Format/Info : Audio Coding 3
Mode extension : CM (complete main)
Format settings, Endianness : Big
Codec ID : 2000
Duration : 44mn 29s
Bit rate mode : Constant
Bit rate : 192 Kbps
Channel(s) : 2 channels
Channel positions : Front: L R
Sampling rate : 48.0 KHz
Bit depth : 16 bits
Compression mode : Lossy
Stream size : 61.1 MiB (11%)
Alignment : Split accross interleaves
Interleave, duration : 40 ms (1.00 video frame)
Interleave, preload duration : 500 ms


Трекер:  [ 20-Мар-2017 03:00 ]

  

Скачать .torrent

Размер .torrent файла 11 KB


Размер: 1.08 GB
Хэш (hash) релиза: fdc07a968f5ffc795319b788bae50846ed9c9a4c
Подписка на обновления:

Торренты, похожие на Должок Серии: 1-2 из 2 скачать торрент

Форум Название Автор Размер S L Добавлен
Российские сериалы ·· Должок / Серии: 1-2 из 2 (Роман Качанов) [2017, детектив, комедия, SATRip-AVC] Galfimbul 12575205981.17 GB 0 0 1489945483

20:44

19-Мар-17

Еще никто не оставлял запись к записи скачать торрент Должок Серии: 1-2 из 2 . Будь первым!

!Обратная связь