Скачать через торрент Родное сердце Серии: 1-4 из 4 Фильм бесплатно в хорошем качестве torrent

Скачивайте на UnionPeer.org фильмы через торрент без регистрации. Новинки кино в хорошем качестве через торрент. На UnionPeer.org можно скачать через торрент фильмы 2014 и 2015 годов. Самые новые фильмы.

Скачать торрент Родное сердце Серии: 1-4 из 4 бесплатно через .torrent фильм мультфильм сериал

Статистика раздачи
Размер:  2.74 GB   |    Зарегистрирован:  1 месяц 7 дней   |    .torrent скачан:  77 раз   |   
Раздают:  2  
   
 
Автор Сообщение

Galfimbul

avatar Galfimbul


Родное сердце
Год выпуска: 2017
Производство: Golden Key Entertainment, кинокомпания "Русское"
Жанр: Мелодрама
Продолжительность: 00:45:00
Субтитры: нет
Режиссёр: Владимир Кильбург, Каиржан Орынбеков
В ролях: Дарья Руденок, Никита Павленко, Иван Решетняк, Анастасия Уколова, Екатерина Агеева, Анатолий Кот, Андрей Фролов (II), Дарья Егорова, Дмитрий Янышевский
Описание: История о том, как любовь, верность и дружба помогают бывшим детдомовцам добиться справедливости и одержать победу над всесильным чиновником, построившем бизнес на обездоленных людях.
Даша Полякова (Дарья Руденок) – была любимым ребенком и отличницей в школе, но в двенадцать лет попала с родителями в автокатастрофу. Родители погибли, а девочку отправили в детский дом.
Много лет Даше потребовалось, чтобы привыкнуть к суровым дедовским законам, но она смогла стать там своей и обрести настоящих друзей.
Проходит несколько лет. Близится выпускной. Даша счастлива – друг детства Гриша Вишневский (Никита Павленко) сделал ей предложение, а вскоре она поедет в Москву – директор детдома и начальник управления опеки (Анатолий Кот) выбил ей квоту на учебу в педагогическом колледже.
Но все происходит не так, как рассчитывала Даша. Внезапно Гриша попадает в тюрьму за кражу в ювелирном магазине. Даша уезжает учиться, пытается связаться с ним, но бывший жених отказывается общаться с ней.
Получив образование, Даша Полякова возвращается в родной город, и узнает, что ее квартира давно продана. Вместе с Гришей и детдомовскими друзьями Даша начинает свое расследование. Вскоре выясняется, что она оказалась не единственной жертвой, у многих выпускников детдома также украли квартиры…
/ Сэмпл
Релиз от:
Качество: HDTVRip
Формат: AVI
Видео кодек: XviD
Аудио кодек: AC3
Видео: 720x400 (16:9), 25.000 fps, XviD build 73, 2018 Kbps, 0.28 bits/pixel
Аудио: 48 kHz, AC3 Dolby Digital, 2 ch, 192 Kbps

Реклама: Нет
General
Complete name : Downloads\Родное сердце.2017.HDTVRip.Files-x\01.Родное сердце.2017.HDTVRip.Files-x.avi
Format : AVI
Format/Info : Audio Video Interleave
File size : 1.37 GiB
Duration : 1h 28mn
Overall bit rate : 2 220 Kbps
Writing application : VirtualDubMod 1.5.10.3 | www.virtualdub-fr.org || (build 2550/release)
Writing library : VirtualDubMod build 2550/release
Video #0
ID : 0
Format : MPEG-4 Visual
Format profile : Advanced Simple@L5
Format settings, BVOP : 1
Format settings, QPel : No
Format settings, GMC : No warppoints
Format settings, Matrix : Custom
Codec ID : XVID
Codec ID/Hint : XviD
Duration : 1h 28mn
Bit rate : 2 018 Kbps
Width : 720 pixels
Height : 400 pixels
Display aspect ratio : 16:9
Frame rate : 25.000 fps
Color space : YUV
Chroma subsampling : 4:2:0
Bit depth : 8 bits
Scan type : Progressive
Compression mode : Lossy
Bits/(Pixel*Frame) : 0.280
Stream size : 1.24 GiB (91%)
Writing library : XviD 73
Audio #1
ID : 1
Format : AC-3
Format/Info : Audio Coding 3
Mode extension : CM (complete main)
Format settings, Endianness : Big
Codec ID : 2000
Duration : 1h 28mn
Bit rate mode : Constant
Bit rate : 192 Kbps
Channel(s) : 2 channels
Channel positions : Front: L R
Sampling rate : 48.0 KHz
Bit depth : 16 bits
Compression mode : Lossy
Stream size : 121 MiB (9%)
Alignment : Split accross interleaves
Interleave, duration : 40 ms (1.00 video frame)
Interleave, preload duration : 500 ms


Трекер:  [ 19-Мар-2017 21:30 ]

  

Скачать .torrent

Размер .torrent файла 14 KB


Размер: 2.74 GB
Хэш (hash) релиза: e54dc6719bffa7f34aa85ebe65de7472bf4fe382
Подписка на обновления:

Еще никто не оставлял запись к записи скачать торрент Родное сердце Серии: 1-4 из 4 . Будь первым!

!Обратная связь