Скачать порно через торрент Johnny Hormone Джонни Гормон UnionPeer.org бесплатно онлайн HD качество

Скачать новое порно 2015, 2014 новинки через торрент UnionPeer.org

Порно торрент бесплатно ЮнионПир.орг

Если у вас наблюдаются проблемы со скриншотами, переходом по ссылками, скачиванием торрентов - проблемы в блокировщике рекламы AdBlock. #хорошегоДня!


Статистика раздачи
Размер:  1.27 GB   |    Зарегистрирован:  8 месяцев   |    .torrent скачан:  47 раз   |   
Раздают:  1  
   
Загрузка...
 
Автор Сообщение

Galfimbul

avatar Galfimbul



Johnny Hormone
Джонни Гормон

Год производства:
1998 г.
Страна:
US
Жанр:
Oral, Anal Sex
Продолжительность:
01:50:50
Студия:
HIS Video
Режиссер:
Gino Colbert
В ролях:
Anthony Gallo, Blade Thompson, Blue Blake, Brent Cross, Corey Evans, Drew Andrews, Hank Hightower, Kurt Stefano, Kyle McKenna, Steve Pierce, Ted Matthews
Описание:
none available
Качество видео:
DVDRip
Формат видео:
AVI
Видео:
MPEG-4 Visual, 640x480, 29.970 fps, 1 500 kb/s
Аудио:
MPEG Audio, 44.1 kHz, Lossy, 128 kb/s
Отличие в размере и качестве картинки
http://.../forum/viewtopic.php?t=1227461
Format : AVI
Format/Info : Audio Video Interleave
File size : 1.27 GiB
Duration : 1 h 50 min
Overall bit rate : 1 641 kb/s
IsTruncated : Yes

Video
ID : 0
Format : MPEG-4 Visual
Format profile : Simple@L3
Format settings, BVOP : Yes
Format settings, QPel : No
Format settings, GMC : No warppoints
Format settings, Matrix : Default (H.263)
Codec ID : XVID
Codec ID/Hint : XviD
Duration : 1 h 50 min
Bit rate : 1 500 kb/s
Width : 640 pixels
Height : 480 pixels
Display aspect ratio : 4:3
Frame rate : 29.970 (30000/1001) FPS
Color space : YUV
Chroma subsampling : 4:2:0
Bit depth : 8 bits
Scan type : Progressive
Compression mode : Lossy
Bits/(Pixel*Frame) : 0.163
Stream size : 1.16 GiB (91%)

Audio
ID : 1
Format : MPEG Audio
Format version : Version 1
Format profile : Layer 3
Mode : Joint stereo
Mode extension : MS Stereo
Codec ID : 55
Codec ID/Hint : MP3
Duration : 1 h 50 min
Bit rate mode : Constant
Bit rate : 128 kb/s
Channel(s) : 2 channels
Sampling rate : 44.1 kHz
Compression mode : Lossy
Stream size : 101 MiB (8%)
Alignment : Aligned on interleaves
Interleave, duration : 26 ms (0.78 video frame)
Interleave, preload duratio : 104 ms
Writing library : LAME3.97


Трекер:  [ 17-Мар-2017 19:00 ]

  

Скачать .torrent

Размер .torrent файла 13 KB


Размер: 1.27 GB
Хэш (hash) релиза: bcd844053ff98f70c6e2a4bcf5ea0d446b109790

Еще никто не оставлял запись к записи скачать торрент Johnny Hormone Джонни Гормон . Будь первым!

!Обратная связь