Скачать порно через торрент Bare Bodies Голые тела UnionPeer.org бесплатно онлайн HD качество

Скачать новое порно 2015, 2014 новинки через торрент UnionPeer.org

Порно торрент бесплатно ЮнионПир.орг

Если у вас наблюдаются проблемы со скриншотами, переходом по ссылками, скачиванием торрентов - проблемы в блокировщике рекламы AdBlock. #хорошегоДня!


Статистика раздачи
Размер:  1.02 GB   |    Зарегистрирован:  5 месяцев 5 дней   |    .torrent скачан:  42 раза   |   
Раздают:  1  
   
Загрузка...
 
Автор Сообщение

Galfimbul

avatar Galfimbul



Bare Bodies
Голые тела

Год производства:
1997 г.
Страна:
US
Жанр:
Oral, Anal Sex
Продолжительность:
01:28:43
Студия:
Metro Home Video
Режиссер:
Kyle Richards
В ролях:
Gino Gultier, Little Steven, Mark Shore, Paul Carrigan, Paul Morgan, Peter Phillips, Richard Reyes, Rick Estephan, Rick Rogue, Sweet Williams
Описание:
Hey, these guys love butt hole & hard cock as much as you do. So join in the action as they work it & we''ll all cum to the same conclusion!
Качество видео:
DVDRip
Формат видео:
AVI
Видео:
MPEG-4 Visual, 640x480, 29.970 fps, 1 500 kb/s
Аудио:
MPEG Audio, 44.1 kHz, Lossy, 128 kb/s
Format : AVI
Format/Info : Audio Video Interleave
File size : 1.02 GiB
Duration : 1 h 28 min
Overall bit rate : 1 641 kb/s

Video
ID : 0
Format : MPEG-4 Visual
Format profile : Simple@L3
Format settings, BVOP : Yes
Format settings, QPel : No
Format settings, GMC : No warppoints
Format settings, Matrix : Default (H.263)
Codec ID : XVID
Codec ID/Hint : XviD
Duration : 1 h 28 min
Bit rate : 1 500 kb/s
Width : 640 pixels
Height : 480 pixels
Display aspect ratio : 4:3
Frame rate : 29.970 (30000/1001) FPS
Color space : YUV
Chroma subsampling : 4:2:0
Bit depth : 8 bits
Scan type : Progressive
Compression mode : Lossy
Bits/(Pixel*Frame) : 0.163
Stream size : 952 MiB (91%)

Audio
ID : 1
Format : MPEG Audio
Format version : Version 1
Format profile : Layer 3
Mode : Joint stereo
Mode extension : MS Stereo
Codec ID : 55
Codec ID/Hint : MP3
Duration : 1 h 28 min
Bit rate mode : Constant
Bit rate : 128 kb/s
Channel(s) : 2 channels
Sampling rate : 44.1 kHz
Compression mode : Lossy
Stream size : 81.0 MiB (8%)
Alignment : Aligned on interleaves
Interleave, duration : 26 ms (0.78 video frame)
Interleave, preload duratio : 104 ms
Writing library : LAME3.97


Трекер:  [ 16-Мар-2017 20:00 ]

  

Скачать .torrent

Размер .torrent файла 10 KB


Размер: 1.02 GB
Хэш (hash) релиза: 508aa1e91a77344482d09c46e4bf33cedf8cdb3c

Торренты, похожие на Bare Bodies Голые тела скачать торрент

Форум Название Автор Размер S L Добавлен
Японские порно фильмы ·· Kana Ohori - Shyness Of OL Hibikaseru A Fart Too Shy Office - Man Bare Lower Body / Каnа Ohori - застенчивость- человек c голой нижней частью тела [JUFD-127] (Hata Tairyou, Fitch) [cen] [2010 г., Asian, All Sex, DVDRip] LinGr 1022602245975 MB 0 0 1370011477

17:44

31-Май-13

Еще никто не оставлял запись к записи скачать торрент Bare Bodies Голые тела . Будь первым!

!Обратная связь