Скачать порно через торрент Ace in the Hole Козырь в кармане UnionPeer.org бесплатно онлайн HD качество

Скачать новое порно 2015, 2014 новинки через торрент UnionPeer.org

Порно торрент бесплатно ЮнионПир.орг

Если у вас наблюдаются проблемы со скриншотами, переходом по ссылками, скачиванием торрентов - проблемы в блокировщике рекламы AdBlock. #хорошегоДня!


Статистика раздачи
Размер:  735 MB   |    Зарегистрирован:  7 месяцев   |    .torrent скачан:  68 раз   |   
Раздают:  1  
   
Загрузка...
 
Автор Сообщение

Galfimbul

avatar Galfimbul



Ace in the Hole
Козырь в кармане

Год производства:
1993 г.
Страна:
US
Жанр:
Classic, Oral, Anal Sex,
Продолжительность:
01:02:39
Студия:
Catalina Video
Режиссер:
Taylor Hudson
В ролях:
Ace Harden, Andrew Montana, Damien, Dexter Crew, Johnny Roma, Marco Rossi, Tony Brandon, Zak Spears
Описание:
You''ve hit the jackpot, and you''re on a winning streak. There''s nothing more desirable than taking it all, every last bit. Once you get your hands on it you can''t let go, you''re hooked. You want more, more, more. You take that final chance. The chance to win 12 big ones. 12 big inches of the best prize of all. All you need is one thing .. "Ace in the Hole."
Качество видео:
VHSRip
Формат видео:
AVI
Видео:
MPEG-4 Visual, 640x480, 29.970 fps, 1 499 kb/s
Аудио:
MPEG Audio, 44.1 kHz, Lossy, 128 kb/s
Format : AVI
Format/Info : Audio Video Interleave
File size : 735 MiB
Duration : 1 h 2 min
Overall bit rate : 1 640 kb/s

Video
ID : 0
Format : MPEG-4 Visual
Format profile : Simple@L3
Format settings, BVOP : Yes
Format settings, QPel : No
Format settings, GMC : No warppoints
Format settings, Matrix : Default (H.263)
Codec ID : XVID
Codec ID/Hint : XviD
Duration : 1 h 2 min
Bit rate : 1 499 kb/s
Width : 640 pixels
Height : 480 pixels
Display aspect ratio : 4:3
Frame rate : 29.970 (30000/1001) FPS
Color space : YUV
Chroma subsampling : 4:2:0
Bit depth : 8 bits
Scan type : Progressive
Compression mode : Lossy
Bits/(Pixel*Frame) : 0.163
Stream size : 671 MiB (91%)

Audio
ID : 1
Format : MPEG Audio
Format version : Version 1
Format profile : Layer 3
Mode : Joint stereo
Mode extension : MS Stereo
Codec ID : 55
Codec ID/Hint : MP3
Duration : 1 h 2 min
Bit rate mode : Constant
Bit rate : 128 kb/s
Channel(s) : 2 channels
Sampling rate : 44.1 kHz
Compression mode : Lossy
Stream size : 57.2 MiB (8%)
Alignment : Aligned on interleaves
Interleave, duration : 26 ms (0.78 video frame)
Interleave, preload duratio : 104 ms
Writing library : LAME3.97


Трекер:  [ 16-Мар-2017 13:30 ]

  

Скачать .torrent

Размер .torrent файла 15 KB


Размер: 735 MB
Хэш (hash) релиза: 014405e7ade19e43707f5f315a741f8641d293e3

Еще никто не оставлял запись к записи скачать торрент Ace in the Hole Козырь в кармане . Будь первым!

!Обратная связь