Скачать через торрент Мурка Сезон: Серии: 1-8 из 12 Фильм бесплатно в хорошем качестве torrent

Скачивайте на UnionPeer.org фильмы через торрент без регистрации. Новинки кино в хорошем качестве через торрент. На UnionPeer.org можно скачать через торрент фильмы 2014 и 2015 годов. Самые новые фильмы.

Скачать торрент Мурка Сезон: Серии: 1-8 из 12 бесплатно через .torrent фильм мультфильм сериал

Если у вас наблюдаются проблемы со скриншотами, переходом по ссылками, скачиванием торрентов - проблемы в блокировщике рекламы AdBlock. #хорошегоДня!


Статистика раздачи
Размер:  6.36 GB   |    Зарегистрирован:  4 месяца 5 дней   |    .torrent скачан:  184 раза   |   
Раздают:  1  
   
Загрузка...
 
Автор Сообщение

Galfimbul

avatar Galfimbul


Мурка

Год выпуска: 2016
Производство: Россия, Студия Бонанза, Киноко
Жанр: детектив, приключения
Продолжительность: 00:52:33
Субтитры: нет

Режиссёр: Антон Розенберг, Ярослав Мочалов

В ролях: Мария Луговая, Максим Дрозд, Михаил Пореченков, Нина Дворжецкая, Алёна Бабенко, Анатолий Гущин, Антон Хабаров, Сергей Гармаш, Светлана Ходченкова, Игорь Жижикин, Борис Полунин, Марина Куделинская, Джаник Файзиев, Алексей Бардуков, Артем Гайдуков, Максим Сапрыкин , Фёдор Леонов, Петр Томашевский, Ксения Щербакова, Роман Синицын, Дмитрий Блохин, Александр Пашков, Станислав Эвентов, Александр Горбатов , Дмитрий Арбенин, Сергей Тэсслер, Алексей Игнатов, Илья Шляга

Описание: Картина отражает сюжет всем известной песни и рассказывает о криминальной Одессе 20-х годов прошлого века.В начале 20-х годов в Одессе процветали криминальные группировки и найти честного человека было сложней, чем жулика или бандита. Именно в этот сложный период из Москвы в Одессу была направлена сотрудница внутренних органов Мария Климова в составе секретного подразделения ГПУ под кодовым названием "Апостолы". На месте она была вынуждена работать под прикрытием легенды и под псевдонимом Мурка. Ее цель - предполагаемый главарь преступного мира по кличке "Бриллиант".

Реклама: Нет

Все раздачи сериала:
Сэмпл: http://multi-up.com/1145300

Качество: HDTVRip-AVC
Формат: MKV
Видео кодек: H.264
Аудио кодек: AC3
Видео: MPEG4 Video (H264), 1024x576, 25fps, bit/pixel 0.136
Аудио: AC3, 48000Hz, stereo, 192kbps, 2 ch
Формат : Matroska
Версия формата : Version 2
Размер файла : 824 Мбайт
Продолжительность : 52 м.
Общий поток : 2193 Кбит/сек
Дата кодирования : UTC 2017-03-09 19:03:26
Программа кодирования : mkvmerge v7.8.0 ('River Man') 32bit built on Apr 3 2015 12:11:22
Библиотека кодирования : libebml v1.3.1 + libmatroska v1.4.2

Видео
Идентификатор : 1
Формат : AVC
Формат/Информация : Advanced Video Codec
Профиль формата : High@L4.1
Параметр CABAC формата : Да
Параметр ReFrames формата : 8 кадров
Идентификатор кодека : V_MPEG4/ISO/AVC
Продолжительность : 52 м.
Битрейт : 2000 Кбит/сек
Ширина : 1024 пикселя
Высота : 576 пикселей
Соотношение сторон : 16:9
Режим частоты кадров : Постоянный
Частота кадров : 25,000 кадров/сек
Цветовое пространство : YUV
Субдискретизация насыщенности : 4:2:0
Битовая глубина : 8 бит
Тип развёртки : Прогрессивная
Бит/(Пиксели*Кадры) : 0.136
Размер потока : 736 Мбайт (89%)
Библиотека кодирования : x264 core 146 r2538 121396c
Настройки программы : cabac=1 / ref=8 / deblock=1:-2:-1 / analyse=0x3:0x113 / me=umh / subme=9 / psy=1 / psy_rd=1.00:0.15 / mixed_ref=1 / me_range=32 / chroma_me=1 / trellis=2 / 8x8dct=1 / cqm=0 / deadzone=21,11 / fast_pskip=0 / chroma_qp_offset=-3 / threads=6 / lookahead_threads=1 / sliced_threads=0 / nr=0 / decimate=0 / interlaced=0 / bluray_compat=0 / constrained_intra=0 / bframes=9 / b_pyramid=2 / b_adapt=2 / b_bias=0 / direct=3 / weightb=1 / open_gop=0 / weightp=2 / keyint=250 / keyint_min=25 / scenecut=40 / intra_refresh=0 / rc_lookahead=40 / rc=2pass / mbtree=0 / bitrate=2000 / ratetol=1.0 / qcomp=0.60 / qpmin=0 / qpmax=69 / qpstep=4 / cplxblur=20.0 / qblur=0.5 / vbv_maxrate=14000 / vbv_bufsize=14000 / nal_hrd=none / filler=0 / ip_ratio=1.40 / pb_ratio=1.30 / aq=2:1.00
Default : Да
Forced : Нет
Цветовой диапазон : Limited
Основные цвета : BT.709
Характеристики трансфера : BT.709
Коэффициенты матрицы : BT.709

Аудио
Идентификатор : 2
Формат : AC-3
Формат/Информация : Audio Coding 3
Расширение режима : CM (complete main)
Параметр Endianness формата : Big
Идентификатор кодека : A_AC3
Продолжительность : 52 м.
Вид битрейта : Постоянный
Битрейт : 192 Кбит/сек
Каналы : 2 канала
Расположение каналов : Front: L R
Частота : 48,0 КГц
Частота кадров : 31,250 кадров/сек (1536 spf)
Метод сжатия : С потерями
Размер потока : 72,2 Мбайт (9%)
Default : Да
Forced : Нет


Трекер:  [ 15-Мар-2017 20:00 ]

  

Скачать .torrent

Размер .torrent файла 32 KB


Размер: 6.36 GB
Хэш (hash) релиза: f8f510211651835c57ef74d3f1746357d222eef4
Подписка на обновления:

Еще никто не оставлял запись к записи скачать торрент Мурка Сезон: Серии: 1-8 из 12 . Будь первым!

!Обратная связь