Qlimax In An Alternate Reality torrent

, , - AdBlock. #!


22.65 GB   |    :  6 2    |    .torrent :  45    |   
1  
   
...
 

Galfimbul

avatar Galfimbul


Qlimax In An Alternate Reality

: hardstyle/hardcore
: 01:31:46
: 2010
: Q-dance

: Qlimax Hardstyle , Gelredome .
Hardstyle , , Q-Dance.



Cisco

: Blu-ray
: m2ts
: MPEG-4 AVC Video 19999 kbps 25 fps 1080i / 16:9 / High Profile 4.1
: DTS-HD Master Audio English 3271 kbps 5.1 / 48 kHz / 3271 kbps / 16-bit (DTS Core: 5.1 / 48 kHz / 1509 kbps / 16-bit)
2: Dolby Digital Audio English 448 kbps 5.1 / 48 kHz / 448 kbps
Disc Title: QLIMAX_2010
Disc Size: 24 325 511 624 bytes
Protection: AACS
BD-Java: No

Notes:

BDINFO HOME AND REPORTS SUBMISSION:
Cinema Squid
http://www.cinemasquid.com/Tools.aspx

INCLUDES FORUMS REPORT FOR:
Unofficial Blu-ray Audio and Video Specifications Thread
http://www.avsforum.com/avs-vb/showthread.php?t=760714
http://forum.blu-ray.com/showthread.php?t=3338

********************
PLAYLIST: 00002.MPLS
********************

<--- BEGIN SUMMARY PASTE --->

:

Total Video
Title Codec Length Movie Size Disc Size Bitrate Bitrate Main Audio Track Secondary Audio Track
----- ------ ------- -------------- -------------- ------- ------- ------------------ ---------------------
00002.MPLS AVC 1:31:46 17 273 186 304 24 325 511 624 25,09 20,00 DTS-HD Master 5.1 3271Kbps (48kHz/16-bit) DD AC3 5.1 448Kbps[/spoiler]
<---- END SUMMARY PASTE ---->

<--- BEGIN DETAILS PASTE --->
[code]DISC INFO:

Disc Title: QLIMAX_2010
Disc Size: 24 325 511 624 bytes
Protection: AACS
BD-Java: No

PLAYLIST REPORT:

Name: 00002.MPLS
Size: 17 273 186 304 bytes
Length: 1:31:46 (h:m:s)
Total Bitrate: 25,09 Mbps
Description:

VIDEO:

Codec Bitrate Description
----- ------- -----------
MPEG-4 AVC Video 19999 kbps 1080i / 25 fps / 16:9 / High Profile 4.1

AUDIO:

Codec Language Bitrate Description
----- -------- ------- -----------
DTS-HD Master Audio English 3271 kbps 5.1 / 48 kHz / 3271 kbps / 16-bit (DTS Core: 5.1 / 48 kHz / 1536 kbps / 16-bit)
Dolby Digital Audio English 448 kbps 5.1 / 48 kHz / 448 kbps

SUBTITLES:

Codec Language Bitrate Description
----- -------- ------- -----------
Presentation Graphics English 0,011 kbps
Presentation Graphics Dutch 0,011 kbps

FILES:

Name Time In Length Size Total Bitrate
---- ------- ------ ---- -------------
00003.M2TS 0:00:00.000 1:31:46.520 17 273 186 304 25 095

CHAPTERS:

Number Time In Length Avg Video Rate Max 1-Sec Rate Max 1-Sec Time Max 5-Sec Rate Max 5-Sec Time Max 10Sec Rate Max 10Sec Time Avg Frame Size Max Frame Size Max Frame Time
------ ------- ------ -------------- -------------- -------------- -------------- -------------- -------------- -------------- -------------- -------------- --------------
1 0:00:00.000 0:02:18.840 19 117 kbps 32 568 kbps 00:02:08.159 26 211 kbps 00:01:38.360 23 893 kbps 00:01:59.720 95 559 bytes 272 529 bytes 00:01:52.120
2 0:02:18.840 0:05:24.919 20 525 kbps 35 421 kbps 00:02:41.360 29 037 kbps 00:02:40.399 26 209 kbps 00:02:26.400 102 624 bytes 315 205 bytes 00:06:26.640
3 0:07:43.760 0:01:36.400 19 896 kbps 32 660 kbps 00:09:05.040 26 423 kbps 00:08:52.000 25 198 kbps 00:08:52.240 99 479 bytes 290 079 bytes 00:09:06.040
4 0:09:20.160 0:06:35.000 19 770 kbps 35 945 kbps 00:13:55.160 32 877 kbps 00:13:54.960 29 899 kbps 00:13:53.840 98 852 bytes 332 936 bytes 00:14:27.359
5 0:15:55.160 0:01:42.359 20 508 kbps 33 678 kbps 00:17:25.080 26 857 kbps 00:17:12.000 25 814 kbps 00:17:07.840 102 541 bytes 279 408 bytes 00:17:13.240
6 0:17:37.520 0:07:03.840 18 762 kbps 34 327 kbps 00:20:47.680 28 525 kbps 00:17:57.040 26 471 kbps 00:17:57.080 93 812 bytes 297 790 bytes 00:19:12.359
7 0:24:41.360 0:02:53.920 20 491 kbps 30 964 kbps 00:25:06.840 27 804 kbps 00:25:04.920 25 651 kbps 00:24:59.720 102 456 bytes 272 883 bytes 00:25:05.639
8 0:27:35.280 0:14:02.319 19 917 kbps 35 936 kbps 00:29:21.719 31 732 kbps 00:29:20.239 29 162 kbps 00:29:15.200 99 583 bytes 302 225 bytes 00:37:28.280
9 0:41:37.600 0:01:45.519 22 146 kbps 33 354 kbps 00:42:15.960 29 974 kbps 00:42:16.040 28 370 kbps 00:42:43.480 110 732 bytes 297 820 bytes 00:42:16.600
10 0:43:23.120 0:08:13.840 21 669 kbps 33 303 kbps 00:47:59.840 28 280 kbps 00:46:17.320 26 292 kbps 00:47:58.480 108 344 bytes 315 030 bytes 00:44:15.040
11 0:51:36.960 0:01:39.920 20 480 kbps 30 445 kbps 00:52:30.960 26 761 kbps 00:52:03.520 26 170 kbps 00:52:01.440 102 399 bytes 253 026 bytes 00:53:07.440
12 0:53:16.880 0:09:12.399 21 493 kbps 34 511 kbps 01:00:19.760 28 084 kbps 01:01:37.120 26 702 kbps 01:01:36.840 107 467 bytes 313 022 bytes 01:02:08.280
13 1:02:29.280 0:01:37.039 20 324 kbps 32 476 kbps 01:03:55.240 27 152 kbps 01:03:35.520 26 486 kbps 01:03:34.920 101 618 bytes 278 637 bytes 01:03:57.200
14 1:04:06.320 0:10:41.400 19 403 kbps 33 602 kbps 01:05:51.640 28 354 kbps 01:08:40.320 26 514 kbps 01:09:53.680 97 015 bytes 311 304 bytes 01:11:53.439
15 1:14:47.720 0:01:59.719 20 031 kbps 29 988 kbps 01:16:17.479 28 658 kbps 01:16:16.920 28 239 kbps 01:16:17.320 100 154 bytes 307 689 bytes 01:16:09.000
16 1:16:47.439 0:04:50.240 17 318 kbps 32 631 kbps 01:18:57.200 29 579 kbps 01:18:55.080 26 804 kbps 01:21:14.920 86 588 bytes 323 211 bytes 01:20:46.200
17 1:21:37.680 0:00:41.679 20 047 kbps 31 807 kbps 01:22:10.200 24 503 kbps 01:22:14.040 23 665 kbps 01:22:09.320 100 234 bytes 252 280 bytes 01:22:18.080
18 1:22:19.360 0:06:22.039 19 469 kbps 33 593 kbps 01:23:42.920 29 704 kbps 01:23:42.080 27 558 kbps 01:23:41.760 97 343 bytes 285 360 bytes 01:26:46.400
19 1:28:41.400 0:03:04.079 19 627 kbps 33 783 kbps 01:30:59.439 29 787 kbps 01:30:57.360 25 629 kbps 01:29:32.560 98 137 bytes 251 811 bytes 01:31:08.000
20 1:31:45.479 0:00:01.040 81 kbps 84 kbps 01:31:45.479 0 kbps 00:00:00.000 0 kbps 00:00:00.000 422 bytes 1 468 bytes 01:31:46.120

STREAM DIAGNOSTICS:

File PID Type Codec Language Seconds Bitrate Bytes Packets
---- --- ---- ----- -------- -------------- -------------- ------------- -----
00003.M2TS 4113 (0x1011) 0x1B AVC 5506,520 19 999 13 765 883 089 74 964 157
00003.M2TS 4352 (0x1100) 0x81 AC3 eng (English) 5506,520 448 308 365 568 1 720 790
00003.M2TS 4353 (0x1101) 0x86 DTS-HD MA eng (English) 5506,520 3 271 2 251 486 900 13 094 963
00003.M2TS 4608 (0x1200) 0x90 PGS nld (Dutch) 5506,520 0 7 842 50
00003.M2TS 4609 (0x1201) 0x90 PGS eng (English) 5506,520 0 7 842 50[/code]
<---- END DETAILS PASTE ---->

********************
PLAYLIST: 00005.MPLS
********************

<--- BEGIN SUMMARY PASTE --->
[code]Total Video
Title Codec Length Movie Size Disc Size Bitrate Bitrate Main Audio Track Secondary Audio Track
----- ------ ------- -------------- -------------- ------- ------- ------------------ ---------------------
00005.MPLS AVC 0:26:23 3 317 747 712 24 325 511 624 16,76 15,00 DD AC3 5.1 448Kbps DD AC3 5.1 448Kbps[/code]
<---- END SUMMARY PASTE ---->

<--- BEGIN DETAILS PASTE --->
[code]DISC INFO:

Disc Title: QLIMAX_2010
Disc Size: 24 325 511 624 bytes
Protection: AACS
BD-Java: No

PLAYLIST REPORT:

Name: 00005.MPLS
Size: 3 317 747 712 bytes
Length: 0:26:23 (h:m:s)
Total Bitrate: 16,76 Mbps
Description:

VIDEO:

Codec Bitrate Description
----- ------- -----------
MPEG-4 AVC Video 15000 kbps 1080i / 25 fps / 16:9 / High Profile 4.1

AUDIO:

Codec Language Bitrate Description
----- -------- ------- -----------
Dolby Digital Audio English 448 kbps 5.1 / 48 kHz / 448 kbps
Dolby Digital Audio English 448 kbps 5.1 / 48 kHz / 448 kbps

SUBTITLES:

Codec Language Bitrate Description
----- -------- ------- -----------
Presentation Graphics English 29,706 kbps
Presentation Graphics Dutch 17,751 kbps

FILES:

Name Time In Length Size Total Bitrate
---- ------- ------ ---- -------------
00008.M2TS 0:00:00.000 0:26:23.920 3 317 747 712 16 757

CHAPTERS:

Number Time In Length Avg Video Rate Max 1-Sec Rate Max 1-Sec Time Max 5-Sec Rate Max 5-Sec Time Max 10Sec Rate Max 10Sec Time Avg Frame Size Max Frame Size Max Frame Time
------ ------- ------ -------------- -------------- -------------- -------------- -------------- -------------- -------------- -------------- -------------- --------------
1 0:00:00.000 0:26:22.880 15 010 kbps 27 398 kbps 00:04:19.000 24 651 kbps 00:05:31.080 22 430 kbps 00:05:28.760 75 049 bytes 270 306 bytes 00:11:41.800
2 0:26:22.880 0:00:01.039 99 kbps 103 kbps 00:26:22.880 0 kbps 00:00:00.000 0 kbps 00:00:00.000 515 bytes 1 470 bytes 00:26:23.239

STREAM DIAGNOSTICS:

File PID Type Codec Language Seconds Bitrate Bytes Packets
---- --- ---- ----- -------- -------------- -------------- ------------- -----
00008.M2TS 4113 (0x1011) 0x1B AVC 1583,920 15 000 2 969 922 554 16 183 887
00008.M2TS 4352 (0x1100) 0x81 AC3 eng (English) 1583,920 448 88 700 416 494 980
00008.M2TS 4353 (0x1101) 0x81 AC3 eng (English) 1583,920 448 88 700 416 494 980
00008.M2TS 4608 (0x1200) 0x90 PGS nld (Dutch) 1583,920 18 3 514 494 19 814
00008.M2TS 4609 (0x1201) 0x90 PGS eng (English) 1583,920 30 5 881 429 33 171[/code]
<---- END DETAILS PASTE ---->

********************
PLAYLIST: 00004.MPLS
********************

<--- BEGIN SUMMARY PASTE --->
[code]Total Video
Title Codec Length Movie Size Disc Size Bitrate Bitrate Main Audio Track Secondary Audio Track
----- ------ ------- -------------- -------------- ------- ------- ------------------ ---------------------
00004.MPLS AVC 0:14:21 1 374 351 360 24 325 511 624 12,76 11,17 DD AC3 5.1 448Kbps DD AC3 5.1 448Kbps[/code]
<---- END SUMMARY PASTE ---->

<--- BEGIN DETAILS PASTE --->
[code]DISC INFO:

Disc Title: QLIMAX_2010
Disc Size: 24 325 511 624 bytes
Protection: AACS
BD-Java: No

PLAYLIST REPORT:

Name: 00004.MPLS
Size: 1 374 351 360 bytes
Length: 0:14:21 (h:m:s)
Total Bitrate: 12,76 Mbps
Description:

VIDEO:

Codec Bitrate Description
----- ------- -----------
MPEG-4 AVC Video 11172 kbps 1080i / 25 fps / 16:9 / High Profile 4.1

AUDIO:

Codec Language Bitrate Description
----- -------- ------- -----------
Dolby Digital Audio English 448 kbps 5.1 / 48 kHz / 448 kbps
Dolby Digital Audio English 448 kbps 5.1 / 48 kHz / 448 kbps

SUBTITLES:

Codec Language Bitrate Description
----- -------- ------- -----------
Presentation Graphics English 5,597 kbps
Presentation Graphics Dutch 43,244 kbps

FILES:

Name Time In Length Size Total Bitrate
---- ------- ------ ---- -------------
00007.M2TS 0:00:00.000 0:14:21.440 1 374 351 360 12 763

CHAPTERS:

Number Time In Length Avg Video Rate Max 1-Sec Rate Max 1-Sec Time Max 5-Sec Rate Max 5-Sec Time Max 10Sec Rate Max 10Sec Time Avg Frame Size Max Frame Size Max Frame Time
------ ------- ------ -------------- -------------- -------------- -------------- -------------- -------------- -------------- -------------- -------------- --------------
1 0:00:00.000 0:14:20.400 11 185 kbps 27 069 kbps 00:04:45.799 23 240 kbps 00:12:11.760 21 427 kbps 00:12:09.440 55 922 bytes 256 017 bytes 00:13:41.240
2 0:14:20.400 0:00:01.039 85 kbps 88 kbps 00:14:20.400 0 kbps 00:00:00.000 0 kbps 00:00:00.000 441 bytes 1 467 bytes 00:14:20.760

STREAM DIAGNOSTICS:

File PID Type Codec Language Seconds Bitrate Bytes Packets
---- --- ---- ----- -------- -------------- -------------- ------------- -----
00007.M2TS 4113 (0x1011) 0x1B AVC 861,440 11 172 1 202 950 519 6 561 145
00007.M2TS 4352 (0x1100) 0x81 AC3 eng (English) 861,440 448 48 238 848 269 190
00007.M2TS 4353 (0x1101) 0x81 AC3 eng (English) 861,440 448 48 238 848 269 190
00007.M2TS 4608 (0x1200) 0x90 PGS nld (Dutch) 861,440 43 4 656 496 26 242
00007.M2TS 4609 (0x1201) 0x90 PGS eng (English) 861,440 6 602 736 3 407[/code]
<---- END DETAILS PASTE ---->

********************
PLAYLIST: 00006.MPLS
********************

<--- BEGIN SUMMARY PASTE --->
[code]Total Video
Title Codec Length Movie Size Disc Size Bitrate Bitrate Main Audio Track Secondary Audio Track
----- ------ ------- -------------- -------------- ------- ------- ------------------ ---------------------
00006.MPLS AVC 0:04:38 690 223 104 24 325 511 624 19,82 17,94 DD AC3 5.1 448Kbps DD AC3 5.1 448Kbps[/code]
<---- END SUMMARY PASTE ---->

<--- BEGIN DETAILS PASTE --->
[code]DISC INFO:

Disc Title: QLIMAX_2010
Disc Size: 24 325 511 624 bytes
Protection: AACS
BD-Java: No

PLAYLIST REPORT:

Name: 00006.MPLS
Size: 690 223 104 bytes
Length: 0:04:38 (h:m:s)
Total Bitrate: 19,82 Mbps
Description:

VIDEO:

Codec Bitrate Description
----- ------- -----------
MPEG-4 AVC Video 17940 kbps 1080i / 25 fps / 16:9 / High Profile 4.1

AUDIO:

Codec Language Bitrate Description
----- -------- ------- -----------
Dolby Digital Audio English 448 kbps 5.1 / 48 kHz / 448 kbps
Dolby Digital Audio English 448 kbps 5.1 / 48 kHz / 448 kbps

SUBTITLES:

Codec Language Bitrate Description
----- -------- ------- -----------
Presentation Graphics English 15,000 kbps
Presentation Graphics Dutch 30,386 kbps

FILES:

Name Time In Length Size Total Bitrate
---- ------- ------ ---- -------------
00009.M2TS 0:00:00.000 0:04:38.559 690 223 104 19 823

CHAPTERS:

Number Time In Length Avg Video Rate Max 1-Sec Rate Max 1-Sec Time Max 5-Sec Rate Max 5-Sec Time Max 10Sec Rate Max 10Sec Time Avg Frame Size Max Frame Size Max Frame Time
------ ------- ------ -------------- -------------- -------------- -------------- -------------- -------------- -------------- -------------- -------------- --------------
1 0:00:00.000 0:04:37.520 18 007 kbps 32 146 kbps 00:01:31.480 28 794 kbps 00:01:27.799 26 872 kbps 00:01:22.800 90 020 bytes 292 225 bytes 00:01:25.559
2 0:04:37.520 0:00:01.039 83 kbps 86 kbps 00:04:37.520 0 kbps 00:00:00.000 0 kbps 00:00:00.000 431 bytes 1 471 bytes 00:04:38.159

STREAM DIAGNOSTICS:

File PID Type Codec Language Seconds Bitrate Bytes Packets
---- --- ---- ----- -------- -------------- -------------- ------------- -----
00009.M2TS 4113 (0x1011) 0x1B AVC 278,560 17 940 624 658 517 3 402 528
00009.M2TS 4352 (0x1100) 0x81 AC3 eng (English) 278,560 448 15 599 360 87 050
00009.M2TS 4353 (0x1101) 0x81 AC3 eng (English) 278,560 448 15 599 360 87 050
00009.M2TS 4608 (0x1200) 0x90 PGS nld (Dutch) 278,560 30 1 058 047 5 978
00009.M2TS 4609 (0x1201) 0x90 PGS eng (English) 278,560 15 522 288 2 940[/code]
<---- END DETAILS PASTE ---->

********************
PLAYLIST: 00003.MPLS
********************

<--- BEGIN SUMMARY PASTE --->
[code]Total Video
Title Codec Length Movie Size Disc Size Bitrate Bitrate Main Audio Track Secondary Audio Track
----- ------ ------- -------------- -------------- ------- ------- ------------------ ---------------------
00003.MPLS AVC 0:04:20 645 433 344 24 325 511 624 19,84 17,95 DD AC3 5.1 448Kbps DD AC3 5.1 448Kbps[/code]
<---- END SUMMARY PASTE ---->

<--- BEGIN DETAILS PASTE --->
[code]DISC INFO:

Disc Title: QLIMAX_2010
Disc Size: 24 325 511 624 bytes
Protection: AACS
BD-Java: No

PLAYLIST REPORT:

Name: 00003.MPLS
Size: 645 433 344 bytes
Length: 0:04:20 (h:m:s)
Total Bitrate: 19,84 Mbps
Description:

VIDEO:

Codec Bitrate Description
----- ------- -----------
MPEG-4 AVC Video 17951 kbps 1080i / 25 fps / 16:9 / High Profile 4.1

AUDIO:

Codec Language Bitrate Description
----- -------- ------- -----------
Dolby Digital Audio English 448 kbps 5.1 / 48 kHz / 448 kbps
Dolby Digital Audio English 448 kbps 5.1 / 48 kHz / 448 kbps

SUBTITLES:

Codec Language Bitrate Description
----- -------- ------- -----------
Presentation Graphics English 45,928 kbps
Presentation Graphics Dutch 0,241 kbps

FILES:

Name Time In Length Size Total Bitrate
---- ------- ------ ---- -------------
00006.M2TS 0:00:00.000 0:04:20.320 645 433 344 19 835

CHAPTERS:

Number Time In Length Avg Video Rate Max 1-Sec Rate Max 1-Sec Time Max 5-Sec Rate Max 5-Sec Time Max 10Sec Rate Max 10Sec Time Avg Frame Size Max Frame Size Max Frame Time
------ ------- ------ -------------- -------------- -------------- -------------- -------------- -------------- -------------- -------------- -------------- --------------
1 0:00:00.000 0:04:19.279 18 023 kbps 28 540 kbps 00:01:12.320 25 249 kbps 00:01:08.480 24 067 kbps 00:01:08.360 90 101 bytes 300 628 bytes 00:02:33.919
2 0:04:19.279 0:00:01.040 81 kbps 85 kbps 00:04:19.279 0 kbps 00:00:00.000 0 kbps 00:00:00.000 423 bytes 1 471 bytes 00:04:19.360

STREAM DIAGNOSTICS:

File PID Type Codec Language Seconds Bitrate Bytes Packets
---- --- ---- ----- -------- -------------- -------------- ------------- -----
00006.M2TS 4113 (0x1011) 0x1B AVC 260,320 17 951 584 132 569 3 181 742
00006.M2TS 4352 (0x1100) 0x81 AC3 eng (English) 260,320 448 14 577 920 81 350
00006.M2TS 4353 (0x1101) 0x81 AC3 eng (English) 260,320 448 14 577 920 81 350
00006.M2TS 4608 (0x1200) 0x90 PGS nld (Dutch) 260,320 0 7 842 50
00006.M2TS 4609 (0x1201) 0x90 PGS eng (English) 260,320 46 1 494 499 8 375[/code]
<---- END DETAILS PASTE ---->

********************
PLAYLIST: 00007.MPLS
********************

<--- BEGIN SUMMARY PASTE --->
[code]Total Video
Title Codec Length Movie Size Disc Size Bitrate Bitrate Main Audio Track Secondary Audio Track
----- ------ ------- -------------- -------------- ------- ------- ------------------ ---------------------
00007.MPLS AVC 0:04:14 414 498 816 24 325 511 624 13,05 11,50 DD AC3 5.1 448Kbps DD AC3 5.1 448Kbps[/code]
<---- END SUMMARY PASTE ---->

<--- BEGIN DETAILS PASTE --->
[code]DISC INFO:

Disc Title: QLIMAX_2010
Disc Size: 24 325 511 624 bytes
Protection: AACS
BD-Java: No

PLAYLIST REPORT:

Name: 00007.MPLS
Size: 414 498 816 bytes
Length: 0:04:14 (h:m:s)
Total Bitrate: 13,05 Mbps
Description:

VIDEO:

Codec Bitrate Description
----- ------- -----------
MPEG-4 AVC Video 11496 kbps 1080i / 25 fps / 16:9 / High Profile 4.1

AUDIO:

Codec Language Bitrate Description
----- -------- ------- -----------
Dolby Digital Audio English 448 kbps 5.1 / 48 kHz / 448 kbps
Dolby Digital Audio English 448 kbps 5.1 / 48 kHz / 448 kbps

SUBTITLES:

Codec Language Bitrate Description
----- -------- ------- -----------
Presentation Graphics English 0,247 kbps
Presentation Graphics Dutch 0,247 kbps

FILES:

Name Time In Length Size Total Bitrate
---- ------- ------ ---- -------------
00010.M2TS 0:00:00.000 0:04:14.120 414 498 816 13 049

CHAPTERS:

Number Time In Length Avg Video Rate Max 1-Sec Rate Max 1-Sec Time Max 5-Sec Rate Max 5-Sec Time Max 10Sec Rate Max 10Sec Time Avg Frame Size Max Frame Size Max Frame Time
------ ------- ------ -------------- -------------- -------------- -------------- -------------- -------------- -------------- -------------- -------------- --------------
1 0:00:00.000 0:04:13.080 11 540 kbps 23 173 kbps 00:02:55.639 20 241 kbps 00:02:52.760 19 440 kbps 00:02:47.960 57 690 bytes 219 645 bytes 00:02:55.679
2 0:04:13.080 0:00:01.039 711 kbps 740 kbps 00:04:13.080 0 kbps 00:00:00.000 0 kbps 00:00:00.000 3 699 bytes 9 965 bytes 00:04:13.440

STREAM DIAGNOSTICS:

File PID Type Codec Language Seconds Bitrate Bytes Packets
---- --- ---- ----- -------- -------------- -------------- ------------- -----
00010.M2TS 4113 (0x1011) 0x1B AVC 254,120 11 496 365 154 672 1 991 401
00010.M2TS 4352 (0x1100) 0x81 AC3 eng (English) 254,120 448 14 228 480 79 400
00010.M2TS 4353 (0x1101) 0x81 AC3 eng (English) 254,120 448 14 228 480 79 400
00010.M2TS 4608 (0x1200) 0x90 PGS nld (Dutch) 254,120 0 7 842 50
00010.M2TS 4609 (0x1201) 0x90 PGS eng (English) 254,120 0 7 842 50[/code]
<---- END DETAILS PASTE ---->

********************
PLAYLIST: 00001.MPLS
********************

<--- BEGIN SUMMARY PASTE --->
[code]Total Video
Title Codec Length Movie Size Disc Size Bitrate Bitrate Main Audio Track Secondary Audio Track
----- ------ ------- -------------- -------------- ------- ------- ------------------ ---------------------
00001.MPLS AVC 0:03:14 360 609 792 24 325 511 624 14,81 13,08 DD AC3 5.1 448Kbps DD AC3 5.1 448Kbps[/code]
<---- END SUMMARY PASTE ---->

<--- BEGIN DETAILS PASTE --->
[code]DISC INFO:

Disc Title: QLIMAX_2010
Disc Size: 24 325 511 624 bytes
Protection: AACS
BD-Java: No

PLAYLIST REPORT:

Name: 00001.MPLS
Size: 360 609 792 bytes
Length: 0:03:14 (h:m:s)
Total Bitrate: 14,81 Mbps
Description:

VIDEO:

Codec Bitrate Description
----- ------- -----------
MPEG-4 AVC Video 13079 kbps 1080i / 25 fps / 16:9 / High Profile 4.1

AUDIO:

Codec Language Bitrate Description
----- -------- ------- -----------
Dolby Digital Audio English 448 kbps 5.1 / 48 kHz / 448 kbps
Dolby Digital Audio English 448 kbps 5.1 / 48 kHz / 448 kbps

SUBTITLES:

Codec Language Bitrate Description
----- -------- ------- -----------
Interactive Graphics English 105,696 kbps

FILES:

Name Time In Length Size Total Bitrate
---- ------- ------ ---- -------------
00002.M2TS 0:00:00.000 0:03:14.760 360 609 792 14 812

CHAPTERS:

Number Time In Length Avg Video Rate Max 1-Sec Rate Max 1-Sec Time Max 5-Sec Rate Max 5-Sec Time Max 10Sec Rate Max 10Sec Time Avg Frame Size Max Frame Size Max Frame Time
------ ------- ------ -------------- -------------- -------------- -------------- -------------- -------------- -------------- -------------- -------------- --------------
1 0:00:00.000 0:03:14.760 13 079 kbps 29 210 kbps 00:00:37.879 26 100 kbps 00:00:37.120 23 878 kbps 00:00:34.360 65 394 bytes 281 310 bytes 00:00:42.679

STREAM DIAGNOSTICS:

File PID Type Codec Language Seconds Bitrate Bytes Packets
---- --- ---- ----- -------- -------------- -------------- ------------- -----
00002.M2TS 4113 (0x1011) 0x1B AVC 194,760 13 079 318 404 246 1 735 762
00002.M2TS 4352 (0x1100) 0x81 AC3 eng (English) 194,760 448 10 907 904 60 870
00002.M2TS 4353 (0x1101) 0x81 AC3 eng (English) 194,760 448 10 907 904 60 870
00002.M2TS 5120 (0x1400) 0x91 IGS eng (English) 194,760 106 2 573 167 14 106[/code]
<---- END DETAILS PASTE ---->


 ·  , , FAQ-
:  [ 29--2011 16:26 ]

  

.torrent

.torrent 116 KB


: 22.65 GB
(hash) : a7a0a89a441b153b34e616170a5b3855293ea16c
··
...

Qlimax In An Alternate Reality . !

!