Qlimax 2009 Live Registration torrent

, , - AdBlock. #!


21.8 GB   |    :  6 2    |    .torrent :  31    |   
1  
   
...
 

Galfimbul

avatar Galfimbul


Qlimax 2009 Live Registration

: 2010
: Hardstyle
: 01:43:13



Qlimax - hardstyle , Gelredome . Hardstyle , , Q-Dance. . Qlimax .

: Nature Of Our Mind

: Isaac, A-Lusion, Davide Sonar, Brennan Heart, Technoboy, D-Block & S-te-Fan, Headhunterz, Noisecontrollers, Deepack, Noize Suppressor.

Bonus Materials

The Documentary
Brennan Heart Live
The Trailer

: Blu-ray
: BDMV
: MPEG-4 AVC
: DTS, AC3
: 1920x1080i, MPEG-4 AVC, 25 fps, ~ 17.9 Mbps
:
DTS-HD MA 5.1, 48 kHz, 16 bit, 3269 kbps
AC3 5.1, 48 kHz, 448 kbps
Disc Title:
Disc Size: 23404801364 bytes
Protection: AACS
BD-Java: No
BDInfo: 0.5.3

Notes:

BDINFO HOME:
Cinema Squid
http://www.cinemasquid.com/blu-ray/tools/bdinfo

INCLUDES FORUMS REPORT FOR:
AVS Forum Blu-ray Audio and Video Specifications Thread
http://www.avsforum.com/avs-vb/showthread.php?t=1155731

********************
PLAYLIST: 00004.MPLS
********************

<--- BEGIN FORUMS PASTE --->

:

Total Video
Title Codec Length Movie Size Disc Size Bitrate Bitrate Main Audio Track Secondary Audio Track
----- ------ ------- -------------- -------------- ------- ------- ------------------ ---------------------
00004.MPLS AVC 1:43:13 17739320256 23404801364 22,91 17,91 DTS-HD Master 5.1 3269Kbps (48kHz/16-bit) DD AC3 5.1 448Kbps[/spoiler]
[code]DISC INFO:

Disc Title:
Disc Size: 23404801364 bytes
Protection: AACS
BD-Java: No
BDInfo: 0.5.3

PLAYLIST REPORT:

Name: 00004.MPLS
Length: 1:43:13 (h:m:s)
Size: 17739320256 bytes
Total Bitrate: 22,91 Mbps

VIDEO:

Codec Bitrate Description
----- ------- -----------
MPEG-4 AVC Video 17911 kbps 1080i / 25 fps / 16:9 / High Profile 4.1

AUDIO:

Codec Language Bitrate Description
----- -------- ------- -----------
DTS-HD Master Audio English 3269 kbps 5.1 / 48 kHz / 3269 kbps / 16-bit (DTS Core: 5.1 / 48 kHz / 1509 kbps / 16-bit)
Dolby Digital Audio English 448 kbps 5.1 / 48 kHz / 448 kbps

FILES:

Name Time In Length Size Total Bitrate
---- ------- ------ ---- -------------
00007.M2TS 0:00:00.000 1:43:13.760 17739320256 22912

CHAPTERS:

Number Time In Length Avg Video Rate Max 1-Sec Rate Max 1-Sec Time Max 5-Sec Rate Max 5-Sec Time Max 10Sec Rate Max 10Sec Time Avg Frame Size Max Frame Size Max Frame Time
------ ------- ------ -------------- -------------- -------------- -------------- -------------- -------------- -------------- -------------- -------------- --------------
1 0:00:00.000 0:01:12.679 8486 kbps 14721 kbps 00:01:09.480 11811 kbps 00:01:07.039 10664 kbps 00:01:02.639 42406 bytes 209008 bytes 00:01:10.080
2 0:01:12.679 0:03:32.880 13688 kbps 25427 kbps 00:04:11.400 20735 kbps 00:04:11.000 19694 kbps 00:04:10.840 68442 bytes 238804 bytes 00:04:12.120
3 0:04:45.559 0:04:09.320 15205 kbps 21405 kbps 00:06:02.360 18016 kbps 00:08:06.440 17280 kbps 00:08:35.920 76026 bytes 251398 bytes 00:06:39.320
4 0:08:54.880 0:02:28.079 14499 kbps 24664 kbps 00:10:04.559 20616 kbps 00:10:31.720 19712 kbps 00:10:28.920 72496 bytes 246367 bytes 00:11:17.920
5 0:11:22.960 0:04:42.639 17284 kbps 27064 kbps 00:12:40.160 23254 kbps 00:12:36.359 22000 kbps 00:12:35.240 86420 bytes 279066 bytes 00:16:04.880
6 0:16:05.600 0:02:38.080 18678 kbps 29130 kbps 00:17:56.240 25982 kbps 00:18:24.800 23020 kbps 00:17:53.680 93388 bytes 279341 bytes 00:18:27.440
7 0:18:43.680 0:07:41.319 18349 kbps 28392 kbps 00:25:38.440 23857 kbps 00:25:38.440 22790 kbps 00:25:35.920 91746 bytes 275075 bytes 00:19:42.320
8 0:26:25.000 0:02:46.079 19308 kbps 31714 kbps 00:27:46.480 26593 kbps 00:27:45.440 24222 kbps 00:27:43.280 96542 bytes 284490 bytes 00:27:46.679
9 0:29:11.080 0:07:47.200 19000 kbps 27130 kbps 00:32:22.320 23708 kbps 00:32:09.840 22821 kbps 00:33:58.920 94999 bytes 278676 bytes 00:32:14.719
10 0:36:58.280 0:02:35.159 18997 kbps 29315 kbps 00:39:21.920 24218 kbps 00:39:27.280 23667 kbps 00:39:22.000 94984 bytes 271609 bytes 00:39:30.600
11 0:39:33.440 0:06:02.799 19498 kbps 27692 kbps 00:44:11.880 24210 kbps 00:44:08.920 22638 kbps 00:44:28.240 97488 bytes 276743 bytes 00:43:53.880
12 0:45:36.239 0:04:48.320 18287 kbps 30376 kbps 00:46:21.239 25423 kbps 00:48:42.880 24253 kbps 00:48:42.320 91437 bytes 283052 bytes 00:49:46.360
13 0:50:24.560 0:06:03.559 19522 kbps 28778 kbps 00:51:29.600 23368 kbps 00:52:41.520 22400 kbps 00:52:14.320 97612 bytes 278311 bytes 00:52:43.480
14 0:56:28.120 0:01:58.680 18988 kbps 27836 kbps 00:57:11.400 23636 kbps 00:57:55.600 23184 kbps 00:58:12.800 94938 bytes 256864 bytes 00:57:25.560
15 0:58:26.800 0:08:35.760 19151 kbps 30197 kbps 01:01:20.880 23955 kbps 01:01:28.120 22461 kbps 00:59:14.160 95753 bytes 276530 bytes 01:01:28.360
16 1:07:02.560 0:05:33.639 18355 kbps 30689 kbps 01:11:16.800 24499 kbps 01:10:46.720 23315 kbps 01:11:22.560 91774 bytes 276013 bytes 01:10:17.479
17 1:12:36.200 0:07:09.079 18972 kbps 29160 kbps 01:17:21.439 24315 kbps 01:17:18.280 22494 kbps 01:17:51.600 94860 bytes 279238 bytes 01:15:57.560
18 1:19:45.280 0:01:50.199 18513 kbps 29963 kbps 01:21:03.160 26060 kbps 01:20:59.439 24222 kbps 01:20:58.280 92564 bytes 274940 bytes 01:20:49.840
19 1:21:35.479 0:06:52.760 18971 kbps 28765 kbps 01:26:49.240 24556 kbps 01:26:48.160 22687 kbps 01:22:51.520 94857 bytes 282698 bytes 01:22:30.720
20 1:28:28.240 0:02:10.720 19610 kbps 31166 kbps 01:29:52.160 23456 kbps 01:29:52.120 22300 kbps 01:28:57.760 98051 bytes 257959 bytes 01:29:15.520
21 1:30:38.960 0:06:02.600 18887 kbps 28623 kbps 01:35:56.040 25554 kbps 01:35:44.360 24235 kbps 01:35:44.360 94433 bytes 277865 bytes 01:32:48.880
22 1:36:41.560 0:02:52.960 19377 kbps 28719 kbps 01:38:09.080 24966 kbps 01:38:07.560 24064 kbps 01:38:07.920 96885 bytes 276689 bytes 01:37:57.439
23 1:39:34.520 0:03:39.239 7588 kbps 20926 kbps 01:39:34.520 15956 kbps 01:42:11.080 14201 kbps 01:42:10.880 37941 bytes 259983 bytes 01:39:34.640

STREAM DIAGNOSTICS:

File PID Type Codec Language Seconds Bitrate Bytes Packets
---- --- ---- ----- -------- -------------- -------------- ------------- -----
00007.M2TS 4113 (0x1011) 0x1B AVC 6227,360 17815 13867698801 75537490
00007.M2TS 4352 (0x1100) 0x81 AC3 eng (English) 6227,360 446 346848768 1935540
00007.M2TS 4353 (0x1101) 0x86 DTS-HD MA eng (English) 6227,360 3251 2530722624 14716291[/code]
<---- END FORUMS PASTE ---->

QUICK SUMMARY:

Disc Title:
Disc Size: 23404801364 bytes
Protection: AACS
BD-Java: No
Playlist: 00004.MPLS
Size: 17739320256 bytes
Length: 1:43:13
Total Bitrate: 22,91 Mbps
Video: MPEG-4 AVC Video / 17911 kbps / 1080i / 25 fps / 16:9 / High Profile 4.1
Audio: English / DTS-HD Master Audio / 5.1 / 48 kHz / 3269 kbps / 16-bit (DTS Core: 5.1 / 48 kHz / 1509 kbps / 16-bit)
Audio: English / Dolby Digital Audio / 5.1 / 48 kHz / 448 kbps

********************
PLAYLIST: 00003.MPLS
********************

<--- BEGIN FORUMS PASTE --->
[code]Total Video
Title Codec Length Movie Size Disc Size Bitrate Bitrate Main Audio Track Secondary Audio Track
----- ------ ------- -------------- -------------- ------- ------- ------------------ ---------------------
00003.MPLS AVC 0:26:12 3224100864 23404801364 16,40 14,71 DD AC3 5.1 448Kbps DD AC3 5.1 448Kbps[/code]
[code]DISC INFO:

Disc Title:
Disc Size: 23404801364 bytes
Protection: AACS
BD-Java: No
BDInfo: 0.5.3

PLAYLIST REPORT:

Name: 00003.MPLS
Length: 0:26:12 (h:m:s)
Size: 3224100864 bytes
Total Bitrate: 16,40 Mbps

VIDEO:

Codec Bitrate Description
----- ------- -----------
MPEG-4 AVC Video 14712 kbps 1080i / 25 fps / 16:9 / High Profile 4.1

AUDIO:

Codec Language Bitrate Description
----- -------- ------- -----------
Dolby Digital Audio English 448 kbps 5.1 / 48 kHz / 448 kbps
Dolby Digital Audio English 448 kbps 5.1 / 48 kHz / 448 kbps

FILES:

Name Time In Length Size Total Bitrate
---- ------- ------ ---- -------------
00005.M2TS 0:00:00.000 0:26:12.280 3224100864 16405

CHAPTERS:

Number Time In Length Avg Video Rate Max 1-Sec Rate Max 1-Sec Time Max 5-Sec Rate Max 5-Sec Time Max 10Sec Rate Max 10Sec Time Avg Frame Size Max Frame Size Max Frame Time
------ ------- ------ -------------- -------------- -------------- -------------- -------------- -------------- -------------- -------------- -------------- --------------
1 0:00:00.000 0:03:05.440 15008 kbps 22204 kbps 00:03:03.240 20537 kbps 00:01:39.600 19966 kbps 00:01:34.920 75024 bytes 234279 bytes 00:01:38.799
2 0:03:05.440 0:03:50.839 14487 kbps 21549 kbps 00:05:48.440 19073 kbps 00:05:39.799 18943 kbps 00:05:39.720 72437 bytes 222817 bytes 00:06:43.120
3 0:06:56.279 0:02:19.120 14642 kbps 24890 kbps 00:08:12.000 20713 kbps 00:08:11.680 19261 kbps 00:08:11.400 73208 bytes 221935 bytes 00:06:56.559
4 0:09:15.400 0:03:19.639 16193 kbps 26944 kbps 00:10:09.079 21632 kbps 00:09:55.839 21132 kbps 00:09:49.400 80963 bytes 233810 bytes 00:10:02.720
5 0:12:35.040 0:03:41.400 17558 kbps 26626 kbps 00:13:34.000 23456 kbps 00:13:29.960 22271 kbps 00:13:30.800 87789 bytes 237842 bytes 00:13:06.640
6 0:16:16.440 0:02:18.839 13911 kbps 24545 kbps 00:18:07.880 23035 kbps 00:18:05.000 22546 kbps 00:18:04.600 69553 bytes 222919 bytes 00:17:47.760
7 0:18:35.280 0:03:03.720 12997 kbps 23180 kbps 00:20:21.560 22274 kbps 00:20:21.119 21376 kbps 00:20:19.600 64983 bytes 225327 bytes 00:19:37.440
8 0:21:39.000 0:02:55.679 13085 kbps 19960 kbps 00:24:21.560 17407 kbps 00:23:54.560 16734 kbps 00:23:54.480 65423 bytes 227617 bytes 00:24:22.560
9 0:24:34.679 0:01:37.600 12596 kbps 21341 kbps 00:25:02.840 19644 kbps 00:25:00.800 18897 kbps 00:25:00.560 63007 bytes 229126 bytes 00:25:10.560

STREAM DIAGNOSTICS:

File PID Type Codec Language Seconds Bitrate Bytes Packets
---- --- ---- ----- -------- -------------- -------------- ------------- -----
00005.M2TS 4113 (0x1011) 0x1B AVC 1572,200 14713 2891436955 15756810
00005.M2TS 4352 (0x1100) 0x81 AC3 eng (English) 1572,200 448 88048128 491340
00005.M2TS 4353 (0x1101) 0x81 AC3 eng (English) 1572,200 448 88048128 491340[/code]
<---- END FORUMS PASTE ---->

QUICK SUMMARY:

Disc Title:
Disc Size: 23404801364 bytes
Protection: AACS
BD-Java: No
Playlist: 00003.MPLS
Size: 3224100864 bytes
Length: 0:26:12
Total Bitrate: 16,40 Mbps
Video: MPEG-4 AVC Video / 14712 kbps / 1080i / 25 fps / 16:9 / High Profile 4.1
Audio: English / Dolby Digital Audio / 5.1 / 48 kHz / 448 kbps
Audio: English / Dolby Digital Audio / 5.1 / 48 kHz / 448 kbps

********************
PLAYLIST: 00005.MPLS
********************

<--- BEGIN FORUMS PASTE --->
[code]Total Video
Title Codec Length Movie Size Disc Size Bitrate Bitrate Main Audio Track Secondary Audio Track
----- ------ ------- -------------- -------------- ------- ------- ------------------ ---------------------
00005.MPLS AVC 0:15:07 2195300352 23404801364 19,35 18,00 DD AC3 5.1 448Kbps[/code]
[code]DISC INFO:

Disc Title:
Disc Size: 23404801364 bytes
Protection: AACS
BD-Java: No
BDInfo: 0.5.3

PLAYLIST REPORT:

Name: 00005.MPLS
Length: 0:15:07 (h:m:s)
Size: 2195300352 bytes
Total Bitrate: 19,35 Mbps

VIDEO:

Codec Bitrate Description
----- ------- -----------
MPEG-4 AVC Video 17996 kbps 1080i / 25 fps / 16:9 / High Profile 4.1

AUDIO:

Codec Language Bitrate Description
----- -------- ------- -----------
Dolby Digital Audio English 448 kbps 5.1 / 48 kHz / 448 kbps

FILES:

Name Time In Length Size Total Bitrate
---- ------- ------ ---- -------------
00009.M2TS 0:00:00.000 0:15:07.560 2195300352 19351

CHAPTERS:

Number Time In Length Avg Video Rate Max 1-Sec Rate Max 1-Sec Time Max 5-Sec Rate Max 5-Sec Time Max 10Sec Rate Max 10Sec Time Avg Frame Size Max Frame Size Max Frame Time
------ ------- ------ -------------- -------------- -------------- -------------- -------------- -------------- -------------- -------------- -------------- --------------
1 0:00:00.000 0:15:07.560 17996 kbps 29857 kbps 00:11:36.680 26897 kbps 00:14:14.319 25912 kbps 00:03:49.400 89978 bytes 306053 bytes 00:11:38.000

STREAM DIAGNOSTICS:

File PID Type Codec Language Seconds Bitrate Bytes Packets
---- --- ---- ----- -------- -------------- -------------- ------------- -----
00009.M2TS 4113 (0x1011) 0x1B AVC 907,400 17999 2041502771 11119795
00009.M2TS 4352 (0x1100) 0x81 AC3 eng (English) 907,400 448 50824704 283620[/code]
<---- END FORUMS PASTE ---->

QUICK SUMMARY:

Disc Title:
Disc Size: 23404801364 bytes
Protection: AACS
BD-Java: No
Playlist: 00005.MPLS
Size: 2195300352 bytes
Length: 0:15:07
Total Bitrate: 19,35 Mbps
Video: MPEG-4 AVC Video / 17996 kbps / 1080i / 25 fps / 16:9 / High Profile 4.1
Audio: English / Dolby Digital Audio / 5.1 / 48 kHz / 448 kbps

********************
PLAYLIST: 00001.MPLS
********************

<--- BEGIN FORUMS PASTE --->
[code]Total Video
Title Codec Length Movie Size Disc Size Bitrate Bitrate Main Audio Track Secondary Audio Track
----- ------ ------- -------------- -------------- ------- ------- ------------------ ---------------------
00001.MPLS AVC 0:02:39 91926528 23404801364 4,62 3,81 DD AC3 5.1 448Kbps[/code]
[code]DISC INFO:

Disc Title:
Disc Size: 23404801364 bytes
Protection: AACS
BD-Java: No
BDInfo: 0.5.3

PLAYLIST REPORT:

Name: 00001.MPLS
Length: 0:02:39 (h:m:s)
Size: 91926528 bytes
Total Bitrate: 4,62 Mbps

VIDEO:

Codec Bitrate Description
----- ------- -----------
MPEG-4 AVC Video 3807 kbps 1080i / 25 fps / 16:9 / High Profile 4.1

AUDIO:

Codec Language Bitrate Description
----- -------- ------- -----------
Dolby Digital Audio English 448 kbps 5.1 / 48 kHz / 448 kbps

SUBTITLES:

Codec Language Bitrate Description
----- -------- ------- -----------
Interactive Graphics English 72,868 kbps

FILES:

Name Time In Length Size Total Bitrate
---- ------- ------ ---- -------------
00000.M2TS 0:00:00.000 0:02:39.080 91926528 4623

CHAPTERS:

Number Time In Length Avg Video Rate Max 1-Sec Rate Max 1-Sec Time Max 5-Sec Rate Max 5-Sec Time Max 10Sec Rate Max 10Sec Time Avg Frame Size Max Frame Size Max Frame Time
------ ------- ------ -------------- -------------- -------------- -------------- -------------- -------------- -------------- -------------- -------------- --------------
1 0:00:00.000 0:02:39.080 3807 kbps 22643 kbps 00:00:30.679 15579 kbps 00:00:28.320 14513 kbps 00:00:22.840 19036 bytes 205896 bytes 00:00:31.679

STREAM DIAGNOSTICS:

File PID Type Codec Language Seconds Bitrate Bytes Packets
---- --- ---- ----- -------- -------------- -------------- ------------- -----
00000.M2TS 4113 (0x1011) 0x1B AVC 159,000 3809 75706865 415764
00000.M2TS 4352 (0x1100) 0x81 AC3 eng (English) 159,000 448 8909824 49720
00000.M2TS 5120 (0x1400) 0x91 IGS eng (English) 159,000 73 1448984 7931[/code]
<---- END FORUMS PASTE ---->

QUICK SUMMARY:

Disc Title:
Disc Size: 23404801364 bytes
Protection: AACS
BD-Java: No
Playlist: 00001.MPLS
Size: 91926528 bytes
Length: 0:02:39
Total Bitrate: 4,62 Mbps
Video: MPEG-4 AVC Video / 3807 kbps / 1080i / 25 fps / 16:9 / High Profile 4.1
Audio: English / Dolby Digital Audio / 5.1 / 48 kHz / 448 kbps
Subtitle: English / 72,868 kbps

********************
PLAYLIST: 00002.MPLS
********************

<--- BEGIN FORUMS PASTE --->
[code]Total Video
Title Codec Length Movie Size Disc Size Bitrate Bitrate Main Audio Track Secondary Audio Track
----- ------ ------- -------------- -------------- ------- ------- ------------------ ---------------------
00002.MPLS AVC 0:01:20 105996288 23404801364 10,60 9,61 DD AC3 5.1 448Kbps[/code]
[code]DISC INFO:

Disc Title:
Disc Size: 23404801364 bytes
Protection: AACS
BD-Java: No
BDInfo: 0.5.3

PLAYLIST REPORT:

Name: 00002.MPLS
Length: 0:01:20 (h:m:s)
Size: 105996288 bytes
Total Bitrate: 10,60 Mbps

VIDEO:

Codec Bitrate Description
----- ------- -----------
MPEG-4 AVC Video 9607 kbps 1080i / 25 fps / 16:9 / High Profile 4.1

AUDIO:

Codec Language Bitrate Description
----- -------- ------- -----------
Dolby Digital Audio English 448 kbps 5.1 / 48 kHz / 448 kbps

FILES:

Name Time In Length Size Total Bitrate
---- ------- ------ ---- -------------
00003.M2TS 0:00:00.000 0:01:20.000 105996288 10600

CHAPTERS:

Number Time In Length Avg Video Rate Max 1-Sec Rate Max 1-Sec Time Max 5-Sec Rate Max 5-Sec Time Max 10Sec Rate Max 10Sec Time Avg Frame Size Max Frame Size Max Frame Time
------ ------- ------ -------------- -------------- -------------- -------------- -------------- -------------- -------------- -------------- -------------- --------------
1 0:00:00.000 0:01:20.000 9607 kbps 21875 kbps 00:00:43.000 19751 kbps 00:00:41.919 18295 kbps 00:00:36.920 48033 bytes 210745 bytes 00:00:19.639

STREAM DIAGNOSTICS:

File PID Type Codec Language Seconds Bitrate Bytes Packets
---- --- ---- ----- -------- -------------- -------------- ------------- -----
00003.M2TS 4113 (0x1011) 0x1B AVC 79,880 9621 96066267 524360
00003.M2TS 4352 (0x1100) 0x81 AC3 eng (English) 79,880 449 4480000 25000[/code]
<---- END FORUMS PASTE ---->

QUICK SUMMARY:

Disc Title:
Disc Size: 23404801364 bytes
Protection: AACS
BD-Java: No
Playlist: 00002.MPLS
Size: 105996288 bytes
Length: 0:01:20
Total Bitrate: 10,60 Mbps
Video: MPEG-4 AVC Video / 9607 kbps / 1080i / 25 fps / 16:9 / High Profile 4.1
Audio: English / Dolby Digital Audio / 5.1 / 48 kHz / 448 kbps


 ·  , , FAQ-
:  [ 29--2011 16:26 ]

  

.torrent

.torrent 112 KB


: 21.8 GB
(hash) : d5661592fe50f84c42b032539d210cc9e288ce3b
··
...

, Qlimax 2009 Live Registration

S L
(video) ·· Qlimax 2009 Live Registration [2010 ., Hardstyle, Hardcore, BDRip] Galfimbul 782782464747 MB 0 0 1294845869

18:24

12--11

(video) ·· Qlimax 2009 Live Registration (Qdance) [2010 ., Hardstyle, DVD5 ()] Galfimbul 46368276484.32 GB 0 0 1294835645

15:34

12--11

(video) ·· Qlimax 2009 Live Registration [2010 ., hardstyle, DVD9] Galfimbul 76465664007.12 GB 0 0 1294835466

15:31

12--11

Qlimax 2009 Live Registration . !

!