Decibel 2010 - The Live Registration torrent

, , - AdBlock. #!


20.56 GB   |    :  6 2    |    .torrent :  34    |   
1  
   
...
 

Galfimbul

avatar Galfimbul


Decibel 2010 - The Live Registration

: Music Video, Dance Event, Hardstyle
: 01:44:14
: 2010
:

Decibel Outdoor - 2010 Live Registration, Qlimax, Defqon One, Sensation Black - 15 2010 , , Decibel Outdoor. c .... DJ Isaac, Zany, Dana, Headhanterz, D-Block and S-Te-Fan, The Prophet, Neophyte ..

: Blu-ray
: BDMV
: DTS
: MPEG-4 AVC Video / 15671 kbps / 1080i / 25 fps / 16:9 / High Profile 4.1
: Dolby Digital Audio / 448 kbps 5.1 / 48 kHz / 448 kbps / DN -4dB
Disc Title: Decibel 2010 - The Live Registration
Disc Size: 22071717248 bytes
Protection: AACS
BD-Java: No
BDInfo: 0.5.6

Notes:

BDINFO HOME:
Cinema Squid
http://www.cinemasquid.com/blu-ray/tools/bdinfo

INCLUDES FORUMS REPORT FOR:
AVS Forum Blu-ray Audio and Video Specifications Thread
http://www.avsforum.com/avs-vb/showthread.php?t=1155731

********************
PLAYLIST: 00003.MPLS
********************

<--- BEGIN FORUMS PASTE --->

:

Total Video
Title Codec Length Movie Size Disc Size Bitrate Bitrate Main Audio Track Secondary Audio Track
----- ------ ------- -------------- -------------- ------- ------- ------------------ ---------------------
00003.MPLS AVC 1:44:14 13219147968 22071717248 16,91 15,67 DD AC3 5.1 448Kbps[/spoiler]
[code]DISC INFO:

Disc Title: Decibel 2010 - The Live Registration
Disc Size: 22071717248 bytes
Protection: AACS
BD-Java: No
BDInfo: 0.5.6

PLAYLIST REPORT:

Name: 00003.MPLS
Length: 1:44:14 (h:m:s)
Size: 13219147968 bytes
Total Bitrate: 16,91 Mbps

VIDEO:

Codec Bitrate Description
----- ------- -----------
MPEG-4 AVC Video 15671 kbps 1080i / 25 fps / 16:9 / High Profile 4.1

AUDIO:

Codec Language Bitrate Description
----- -------- ------- -----------
Dolby Digital Audio Dutch 448 kbps 5.1 / 48 kHz / 448 kbps / DN -4dB

FILES:

Name Time In Length Size Total Bitrate
---- ------- ------ ---- -------------
00008.M2TS 0:00:00.000 1:44:14.920 13219147968 16907

CHAPTERS:

Number Time In Length Avg Video Rate Max 1-Sec Rate Max 1-Sec Time Max 5-Sec Rate Max 5-Sec Time Max 10Sec Rate Max 10Sec Time Avg Frame Size Max Frame Size Max Frame Time
------ ------- ------ -------------- -------------- -------------- -------------- -------------- -------------- -------------- -------------- -------------- --------------
1 0:00:00.000 0:01:40.840 15126 kbps 30030 kbps 00:00:10.279 20424 kbps 00:00:10.159 18144 kbps 00:00:02.519 75599 bytes 542110 bytes 00:01:29.000
2 0:01:40.840 0:06:28.120 15494 kbps 27839 kbps 00:03:34.279 19522 kbps 00:01:44.600 18127 kbps 00:06:37.240 77472 bytes 713611 bytes 00:05:16.520
3 0:08:08.960 0:07:42.559 15668 kbps 25404 kbps 00:09:51.880 19806 kbps 00:09:47.880 18697 kbps 00:09:42.840 78338 bytes 682440 bytes 00:11:12.800
4 0:15:51.520 0:11:33.679 15307 kbps 27988 kbps 00:21:07.200 19853 kbps 00:23:10.520 18883 kbps 00:23:07.400 76536 bytes 872365 bytes 00:21:46.760
5 0:27:25.199 0:11:00.920 15890 kbps 28523 kbps 00:31:33.120 20937 kbps 00:31:29.080 18715 kbps 00:37:12.720 79449 bytes 615787 bytes 00:35:06.440
6 0:38:26.120 0:08:09.280 15361 kbps 24584 kbps 00:42:29.880 19186 kbps 00:42:25.880 18274 kbps 00:44:15.200 76806 bytes 807679 bytes 00:39:36.400
7 0:46:35.400 0:07:45.360 16195 kbps 25747 kbps 00:47:02.040 20101 kbps 00:50:28.120 18735 kbps 00:50:23.440 80973 bytes 690129 bytes 00:48:16.520
8 0:54:20.760 0:09:35.840 16159 kbps 25816 kbps 00:55:02.640 20264 kbps 00:57:24.120 19347 kbps 00:54:53.640 80794 bytes 705570 bytes 00:54:27.640
9 1:03:56.600 0:08:58.839 15738 kbps 32369 kbps 01:12:36.160 19903 kbps 01:11:03.560 18733 kbps 01:11:12.600 78690 bytes 621571 bytes 01:04:25.600
10 1:12:55.439 0:19:37.640 15559 kbps 26626 kbps 01:24:11.200 20797 kbps 01:16:45.720 18716 kbps 01:28:44.439 77797 bytes 725696 bytes 01:13:18.600
11 1:32:33.080 0:11:41.840 15610 kbps 25493 kbps 01:40:01.640 20409 kbps 01:43:23.640 20034 kbps 01:43:19.560 78058 bytes 511693 bytes 01:33:06.520

STREAM DIAGNOSTICS:

File PID Type Codec Language Seconds Bitrate Bytes Packets
---- --- ---- ----- -------- -------------- -------------- ------------- -----
00008.M2TS 4113 (0x1011) 0x1B AVC 6254,840 15672 12252842913 66685546
00008.M2TS 4352 (0x1100) 0x81 AC3 nld (Dutch) 6254,840 448 350273280 1954650[/code]
<---- END FORUMS PASTE ---->

QUICK SUMMARY:

Disc Title: Decibel 2010 - The Live Registration
Disc Size: 22071717248 bytes
Protection: AACS
BD-Java: No
Playlist: 00003.MPLS
Size: 13219147968 bytes
Length: 1:44:14
Total Bitrate: 16,91 Mbps
Video: MPEG-4 AVC Video / 15671 kbps / 1080i / 25 fps / 16:9 / High Profile 4.1
Audio: Dutch / Dolby Digital Audio / 5.1 / 48 kHz / 448 kbps / DN -4dB

********************
PLAYLIST: 00002.MPLS
********************

<--- BEGIN FORUMS PASTE --->
[code]Total Video
Title Codec Length Movie Size Disc Size Bitrate Bitrate Main Audio Track Secondary Audio Track
----- ------ ------- -------------- -------------- ------- ------- ------------------ ---------------------
00002.MPLS AVC 1:08:45 8512187520 22071717248 16,51 15,27 DD AC3 5.1 448Kbps[/code]
[code]DISC INFO:

Disc Title: Decibel 2010 - The Live Registration
Disc Size: 22071717248 bytes
Protection: AACS
BD-Java: No
BDInfo: 0.5.6

PLAYLIST REPORT:

Name: 00002.MPLS
Length: 1:08:45 (h:m:s)
Size: 8512187520 bytes
Total Bitrate: 16,51 Mbps

VIDEO:

Codec Bitrate Description
----- ------- -----------
MPEG-4 AVC Video 15273 kbps 1080i / 25 fps / 16:9 / Main Profile 4.0

AUDIO:

Codec Language Bitrate Description
----- -------- ------- -----------
Dolby Digital Audio Dutch 448 kbps 5.1 / 48 kHz / 448 kbps / DN -4dB

FILES:

Name Time In Length Size Total Bitrate
---- ------- ------ ---- -------------
00018.M2TS 0:00:00.000 0:05:00.039 605749248 16151
00012.M2TS 0:05:00.039 0:04:57.640 598253568 16080
00016.M2TS 0:09:57.679 0:06:26.440 780521472 16158
00014.M2TS 0:16:24.120 0:07:19.559 886173696 16128
00010.M2TS 0:23:43.679 0:05:00.039 605552640 16146
00011.M2TS 0:28:43.719 0:09:59.559 1211940864 16171
00015.M2TS 0:38:43.279 0:04:51.559 588963840 16160
00013.M2TS 0:43:34.839 0:10:21.800 1253677056 16130
00009.M2TS 0:53:56.639 0:06:42.840 802342272 15931
00017.M2TS 1:00:39.479 0:08:06.040 1179012864 19404

CHAPTERS:

Number Time In Length Avg Video Rate Max 1-Sec Rate Max 1-Sec Time Max 5-Sec Rate Max 5-Sec Time Max 10Sec Rate Max 10Sec Time Avg Frame Size Max Frame Size Max Frame Time
------ ------- ------ -------------- -------------- -------------- -------------- -------------- -------------- -------------- -------------- -------------- --------------
1 0:00:00.000 0:05:00.039 14933 kbps 26582 kbps 00:03:11.200 21087 kbps 00:03:11.200 18642 kbps 00:03:06.120 74656 bytes 524133 bytes 00:00:48.519
2 0:05:00.039 0:04:57.640 14855 kbps 32427 kbps 00:06:38.760 17518 kbps 00:06:38.760 16429 kbps 00:06:38.760 74277 bytes 672730 bytes 00:07:51.120
3 0:09:57.679 0:06:26.440 14936 kbps 22765 kbps 00:09:57.839 16753 kbps 00:16:09.840 15735 kbps 00:14:11.920 74681 bytes 450574 bytes 00:14:31.320
4 0:16:24.120 0:07:19.559 14906 kbps 26330 kbps 00:17:11.000 17117 kbps 00:17:07.159 16088 kbps 00:17:02.040 74531 bytes 801999 bytes 00:17:11.679
5 0:23:43.679 0:05:00.039 14924 kbps 25377 kbps 00:23:43.679 16951 kbps 00:26:41.119 15794 kbps 00:25:31.679 74621 bytes 456393 bytes 00:25:41.479
6 0:28:43.719 0:09:59.559 14949 kbps 28788 kbps 00:31:04.040 18559 kbps 00:33:53.080 16394 kbps 00:38:01.799 74743 bytes 622409 bytes 00:31:04.080
7 0:38:43.279 0:04:51.559 14938 kbps 25130 kbps 00:38:43.439 16749 kbps 00:41:38.640 15815 kbps 00:38:43.359 74690 bytes 485785 bytes 00:40:15.640
8 0:43:34.839 0:10:21.799 14909 kbps 31525 kbps 00:51:00.279 18389 kbps 00:51:33.719 16923 kbps 00:51:18.200 74544 bytes 643578 bytes 00:44:29.759
9 0:53:56.639 0:06:42.840 14739 kbps 25133 kbps 00:53:56.999 18279 kbps 00:53:56.799 16332 kbps 00:54:08.159 73710 bytes 331391 bytes 00:53:57.999
10 1:00:39.479 0:08:06.040 18065 kbps 35494 kbps 01:07:28.240 28424 kbps 01:05:01.759 27527 kbps 01:05:01.559 90341 bytes 616208 bytes 01:05:46.360

STREAM DIAGNOSTICS:

File PID Type Codec Language Seconds Bitrate Bytes Packets
---- --- ---- ----- -------- -------------- -------------- ------------- -----
00018.M2TS 4113 (0x1011) 0x1B AVC 299,840 14939 559923183 3051113
00018.M2TS 4352 (0x1100) 0x81 AC3 nld (Dutch) 299,840 448 16800000 93750
00012.M2TS 4113 (0x1011) 0x1B AVC 297,440 14868 552804087 3012429
00012.M2TS 4352 (0x1100) 0x81 AC3 nld (Dutch) 297,440 450 16740864 93420
00016.M2TS 4113 (0x1011) 0x1B AVC 386,240 14944 721479431 3931460
00016.M2TS 4352 (0x1100) 0x81 AC3 nld (Dutch) 386,240 448 21641984 120770
00014.M2TS 4113 (0x1011) 0x1B AVC 439,360 14914 819075469 4463400
00014.M2TS 4352 (0x1100) 0x81 AC3 nld (Dutch) 439,360 448 24609536 137330
00010.M2TS 4113 (0x1011) 0x1B AVC 299,840 14934 559732176 3050088
00010.M2TS 4352 (0x1100) 0x81 AC3 nld (Dutch) 299,840 448 16800000 93750
00011.M2TS 4113 (0x1011) 0x1B AVC 599,360 14953 1120289355 6104715
00011.M2TS 4352 (0x1100) 0x81 AC3 nld (Dutch) 599,360 448 33574912 187360
00015.M2TS 4113 (0x1011) 0x1B AVC 291,360 14948 544419784 2966624
00015.M2TS 4352 (0x1100) 0x81 AC3 nld (Dutch) 291,360 448 16323328 91090
00013.M2TS 4113 (0x1011) 0x1B AVC 621,600 14913 1158756974 6314376
00013.M2TS 4352 (0x1100) 0x81 AC3 nld (Dutch) 621,600 448 34822144 194320
00009.M2TS 4113 (0x1011) 0x1B AVC 402,760 14752 742679607 4042334
00009.M2TS 4352 (0x1100) 0x81 AC3 nld (Dutch) 402,760 447 22503936 125580
00017.M2TS 4113 (0x1011) 0x1B AVC 485,960 18069 1097604991 5972554
00017.M2TS 4352 (0x1100) 0x81 AC3 nld (Dutch) 485,960 448 27218688 151890[/code]
<---- END FORUMS PASTE ---->

QUICK SUMMARY:

Disc Title: Decibel 2010 - The Live Registration
Disc Size: 22071717248 bytes
Protection: AACS
BD-Java: No
Playlist: 00002.MPLS
Size: 8512187520 bytes
Length: 1:08:45
Total Bitrate: 16,51 Mbps
Video: MPEG-4 AVC Video / 15273 kbps / 1080i / 25 fps / 16:9 / Main Profile 4.0
Audio: Dutch / Dolby Digital Audio / 5.1 / 48 kHz / 448 kbps / DN -4dB

********************
PLAYLIST: 00000.MPLS
********************

<--- BEGIN FORUMS PASTE --->
[code]Total Video
Title Codec Length Movie Size Disc Size Bitrate Bitrate Main Audio Track Secondary Audio Track
----- ------ ------- -------------- -------------- ------- ------- ------------------ ---------------------
00000.MPLS AVC 0:01:06 95600640 22071717248 11,46 10,70 DD AC3 2.0 192Kbps[/code]
[code]DISC INFO:

Disc Title: Decibel 2010 - The Live Registration
Disc Size: 22071717248 bytes
Protection: AACS
BD-Java: No
BDInfo: 0.5.6

PLAYLIST REPORT:

Name: 00000.MPLS
Length: 0:01:06 (h:m:s)
Size: 95600640 bytes
Total Bitrate: 11,46 Mbps

VIDEO:

Codec Bitrate Description
----- ------- -----------
MPEG-4 AVC Video 10699 kbps 1080i / 25 fps / 16:9 / Main Profile 4.0

AUDIO:

Codec Language Bitrate Description
----- -------- ------- -----------
Dolby Digital Audio Dutch 192 kbps 2.0 / 48 kHz / 192 kbps / DN -4dB

FILES:

Name Time In Length Size Total Bitrate
---- ------- ------ ---- -------------
00000.M2TS 0:00:00.000 0:00:10.120 6230016 4925
00002.M2TS 0:00:10.120 0:00:15.080 14131200 7497
00001.M2TS 0:00:25.200 0:00:14.759 23212032 12581
00003.M2TS 0:00:39.960 0:00:26.759 52027392 15554

CHAPTERS:

Number Time In Length Avg Video Rate Max 1-Sec Rate Max 1-Sec Time Max 5-Sec Rate Max 5-Sec Time Max 10Sec Rate Max 10Sec Time Avg Frame Size Max Frame Size Max Frame Time
------ ------- ------ -------------- -------------- -------------- -------------- -------------- -------------- -------------- -------------- -------------- --------------
1 0:00:00.000 0:01:06.720 10699 kbps 27890 kbps 00:00:40.120 16841 kbps 00:00:40.120 15679 kbps 00:00:55.480 53496 bytes 455253 bytes 00:01:05.440

STREAM DIAGNOSTICS:

File PID Type Codec Language Seconds Bitrate Bytes Packets
---- --- ---- ----- -------- -------------- -------------- ------------- -----
00000.M2TS 4113 (0x1011) 0x1B AVC 9,920 4719 5851908 32098
00002.M2TS 4113 (0x1011) 0x1B AVC 14,880 6956 12937932 70712
00002.M2TS 4352 (0x1100) 0x81 AC3 nld (Dutch) 14,880 195 362496 2360
00001.M2TS 4113 (0x1011) 0x1B AVC 14,560 11896 21650801 118059
00001.M2TS 4352 (0x1100) 0x81 AC3 nld (Dutch) 14,560 195 354048 2305
00003.M2TS 4113 (0x1011) 0x1B AVC 26,560 14696 48790221 265879
00003.M2TS 4352 (0x1100) 0x81 AC3 nld (Dutch) 26,560 193 641280 4175[/code]
<---- END FORUMS PASTE ---->

QUICK SUMMARY:

Disc Title: Decibel 2010 - The Live Registration
Disc Size: 22071717248 bytes
Protection: AACS
BD-Java: No
Playlist: 00000.MPLS
Size: 95600640 bytes
Length: 0:01:06
Total Bitrate: 11,46 Mbps
Video: MPEG-4 AVC Video / 10699 kbps / 1080i / 25 fps / 16:9 / Main Profile 4.0
Audio: Dutch / Dolby Digital Audio / 2.0 / 48 kHz / 192 kbps / DN -4dB


 ·  , , FAQ-
:  [ 29--2011 16:26 ]

  

.torrent

.torrent 107 KB


: 20.56 GB
(hash) : c0e097eb772dac932361168917d299556b94f403
··
...

Decibel 2010 - The Live Registration . !

!