The Prodigy - Worlds On Fire torrent

, , - AdBlock. #!


38.94 GB   |    :  6 2    |    .torrent :  59    |   
1  
   
...
 

Galfimbul

avatar Galfimbul


The Prodigy - World's On Fire
: Electronic, Breakbeat
: 01:10:21 + 01:06:26
: 2011
:
Warrior's Dance festival - : , .
The Prodigy 65- , Milton Keynes National Bowl.
Warrior's Dance festival :
1) -
2) 20 Full HD
3) MTV VMA
:
Warriors Dance Festival
Milton Keynes Bowl 24.7.2010
1. Intro (Live)
2. Breathe (Live)
3. Omen (Live)
4. Colours (Live)
5. Thunder (Live)
6. Warriors Dance (Live)
7. Firestarter (Live)
8. Run With The Wolves (Live)
9. Weather Experience (Live)
10. Voodoo People (Live)
11. Omen Reprise (Live)
12. Invaders Must Die (Live)
13. Smack My Bitch Up (Live)
14. Take Me To The Hospital (Live)
15. Everybody In The Place (Live)
16. Their Law (Live)
17. Out of Space (Live)
Invaders Alive - Extra Content
1. Run With The Wolves (Brixton, London)
2. Spitfire / Mescaline (Brazil)
3. Breathe (Slane Castle, Ireland)
4. Poison (Glastonbury, England)
5. Warning (T In The Park , Scotland)
6. Japanese Film
7. Smack My Bitch Up (Isle Of Wight To Download, England)
8. USA Film
9. UK Arena Tour Film
10. Voodoo (Bestival and Paris, France)


: Blu-ray
: BDMV
: H.264
: DTS
: MPEG-4 AVC Video / 27305 kbps / 1080i / 29.970 fps / 16:9 / High Profile 4.1
#1: DTS-HD Master Audio / 5.1 / 48 kHz / 5125 kbps / 24-bit (DTS Core: 5.1 / 48 kHz / 1509 kbps / 24-bit)
#2: LPCM Audio / 2.0 / 48 kHz / 1536 kbps / 16-bit
Disc Title: THE_PRODIGY_WORLDS_ON_FIRE
Disc Size: 41,806,434,340 bytes
Protection: AACS
BD-Java: No
BDInfo: 0.5.6

Notes:

BDINFO HOME:
Cinema Squid
http://www.cinemasquid.com/blu-ray/tools/bdinfo

INCLUDES FORUMS REPORT FOR:
AVS Forum Blu-ray Audio and Video Specifications Thread
http://www.avsforum.com/avs-vb/showthread.php?t=1155731

********************
PLAYLIST: 00000.MPLS
********************

<--- BEGIN FORUMS PASTE --->

:

Total Video
Title Codec Length Movie Size Disc Size Bitrate Bitrate Main Audio Track Secondary Audio Track
----- ------ ------- -------------- -------------- ------- ------- ------------------ ---------------------
00000.MPLS AVC 1:10:21 18,998,034,432 41,806,434,340 36.00 27.31 DTS-HD Master 5.1 5125Kbps (48kHz/24-bit) LPCM 2.0 1536Kbps (48kHz/16-bit)[/spoiler]
[code]DISC INFO:

Disc Title: THE_PRODIGY_WORLDS_ON_FIRE
Disc Size: 41,806,434,340 bytes
Protection: AACS
BD-Java: No
BDInfo: 0.5.6

PLAYLIST REPORT:

Name: 00000.MPLS
Length: 1:10:21 (h:m:s)
Size: 18,998,034,432 bytes
Total Bitrate: 36.00 Mbps

VIDEO:

Codec Bitrate Description
----- ------- -----------
MPEG-4 AVC Video 27305 kbps 1080i / 29.970 fps / 16:9 / High Profile 4.1

AUDIO:

Codec Language Bitrate Description
----- -------- ------- -----------
DTS-HD Master Audio English 5125 kbps 5.1 / 48 kHz / 5125 kbps / 24-bit (DTS Core: 5.1 / 48 kHz / 1509 kbps / 24-bit)
LPCM Audio English 1536 kbps 2.0 / 48 kHz / 1536 kbps / 16-bit

FILES:

Name Time In Length Size Total Bitrate
---- ------- ------ ---- -------------
00000.M2TS 0:00:00.000 1:09:01.036 18,776,266,752 36,274
00033.M2TS 1:09:01.036 0:01:20.747 221,767,680 21,972

CHAPTERS:

Number Time In Length Avg Video Rate Max 1-Sec Rate Max 1-Sec Time Max 5-Sec Rate Max 5-Sec Time Max 10Sec Rate Max 10Sec Time Avg Frame Size Max Frame Size Max Frame Time
------ ------- ------ -------------- -------------- -------------- -------------- -------------- -------------- -------------- -------------- -------------- --------------
1 0:00:00.000 0:01:39.432 21,408 kbps 40,815 kbps 00:01:26.719 35,570 kbps 00:01:25.285 28,965 kbps 00:01:23.082 89,261 bytes 390,854 bytes 00:01:27.620
2 0:01:39.432 0:04:43.283 28,419 kbps 41,537 kbps 00:01:42.402 32,109 kbps 00:01:53.646 30,540 kbps 00:01:53.646 118,529 bytes 365,337 bytes 00:01:43.169
3 0:06:22.715 0:04:21.961 27,738 kbps 38,319 kbps 00:07:10.129 33,161 kbps 00:07:08.227 30,368 kbps 00:10:08.107 115,690 bytes 355,249 bytes 00:08:51.998
4 0:10:44.677 0:04:07.380 26,269 kbps 40,736 kbps 00:13:34.079 35,378 kbps 00:13:31.644 32,385 kbps 00:11:59.518 109,563 bytes 398,791 bytes 00:12:06.559
5 0:14:52.057 0:02:22.375 27,129 kbps 39,337 kbps 00:15:40.306 34,516 kbps 00:15:15.681 31,384 kbps 00:15:14.113 113,151 bytes 343,580 bytes 00:15:27.693
6 0:17:14.433 0:04:58.865 28,458 kbps 40,024 kbps 00:18:22.000 35,604 kbps 00:18:18.997 35,143 kbps 00:18:13.392 118,692 bytes 398,697 bytes 00:18:19.832
7 0:22:13.298 0:04:46.719 28,306 kbps 37,547 kbps 00:25:49.481 32,818 kbps 00:22:14.199 31,327 kbps 00:22:32.551 118,058 bytes 381,150 bytes 00:22:15.467
8 0:27:00.018 0:04:43.850 27,271 kbps 37,310 kbps 00:29:18.723 31,602 kbps 00:27:00.685 30,413 kbps 00:29:55.326 113,741 bytes 368,337 bytes 00:29:06.211
9 0:31:43.868 0:03:51.664 28,278 kbps 38,556 kbps 00:32:45.997 34,349 kbps 00:32:43.594 33,382 kbps 00:35:08.873 117,943 bytes 394,813 bytes 00:32:46.264
10 0:35:35.533 0:03:54.200 26,709 kbps 38,305 kbps 00:35:51.782 31,705 kbps 00:38:02.480 29,937 kbps 00:38:02.480 111,400 bytes 360,542 bytes 00:35:52.583
11 0:39:29.734 0:01:01.561 13,567 kbps 33,555 kbps 00:40:27.324 25,552 kbps 00:40:18.516 24,179 kbps 00:40:18.516 56,585 bytes 476,311 bytes 00:40:12.476
12 0:40:31.295 0:03:46.359 26,695 kbps 40,386 kbps 00:41:44.468 32,394 kbps 00:41:26.383 31,396 kbps 00:41:23.714 111,341 bytes 447,060 bytes 00:42:45.095
13 0:44:17.655 0:05:47.513 28,321 kbps 38,717 kbps 00:49:56.226 33,529 kbps 00:49:52.322 32,634 kbps 00:49:48.618 118,121 bytes 397,076 bytes 00:49:57.160
14 0:50:05.168 0:05:01.200 28,039 kbps 40,647 kbps 00:51:00.590 34,972 kbps 00:50:32.195 33,320 kbps 00:50:28.158 116,945 bytes 441,004 bytes 00:50:56.453
15 0:55:06.369 0:02:37.624 28,496 kbps 38,036 kbps 00:55:25.722 33,100 kbps 00:55:24.120 32,166 kbps 00:55:20.717 118,854 bytes 358,256 bytes 00:56:49.272
16 0:57:43.993 0:05:57.256 28,702 kbps 36,287 kbps 00:58:09.919 32,615 kbps 00:57:54.404 31,423 kbps 00:57:50.834 119,712 bytes 464,059 bytes 00:59:19.055
17 1:03:41.250 0:05:19.752 28,062 kbps 38,351 kbps 01:07:47.396 33,247 kbps 01:08:05.081 31,862 kbps 01:03:47.290 117,043 bytes 420,803 bytes 01:08:30.506
18 1:09:01.003 0:01:20.780 17,557 kbps 37,076 kbps 01:10:19.949 27,082 kbps 01:10:16.679 22,924 kbps 01:10:11.473 73,257 bytes 334,663 bytes 01:10:21.250

STREAM DIAGNOSTICS:

File PID Type Codec Language Seconds Bitrate Bytes Packets
---- --- ---- ----- -------- -------------- -------------- ------------- -----
00000.M2TS 4113 (0x1011) 0x1B AVC 4140.970 27,496 14,232,263,175 77,422,768
00000.M2TS 4352 (0x1100) 0x80 LPCM eng (English) 4140.970 1,542 798,398,296 4,969,284
00000.M2TS 4353 (0x1101) 0x86 DTS-HD MA eng (English) 4140.970 5,196 2,689,447,032 15,262,238
00033.M2TS 4113 (0x1011) 0x1B AVC 80.614 17,593 177,282,606 964,902
00033.M2TS 4352 (0x1100) 0x80 LPCM eng (English) 80.614 1,545 15,568,600 96,900
00033.M2TS 4353 (0x1101) 0x82 DTS eng (English) 80.614 1,506 15,180,033 90,492[/code]
<---- END FORUMS PASTE ---->

QUICK SUMMARY:

Disc Title: THE_PRODIGY_WORLDS_ON_FIRE
Disc Size: 41,806,434,340 bytes
Protection: AACS
BD-Java: No
Playlist: 00000.MPLS
Size: 18,998,034,432 bytes
Length: 1:10:21
Total Bitrate: 36.00 Mbps
Video: MPEG-4 AVC Video / 27305 kbps / 1080i / 29.970 fps / 16:9 / High Profile 4.1
Audio: English / DTS-HD Master Audio / 5.1 / 48 kHz / 5125 kbps / 24-bit (DTS Core: 5.1 / 48 kHz / 1509 kbps / 24-bit)
Audio: English / LPCM Audio / 2.0 / 48 kHz / 1536 kbps / 16-bit

********************
PLAYLIST: 00029.MPLS
********************

<--- BEGIN FORUMS PASTE --->
[code]Total Video
Title Codec Length Movie Size Disc Size Bitrate Bitrate Main Audio Track Secondary Audio Track
----- ------ ------- -------------- -------------- ------- ------- ------------------ ---------------------
00029.MPLS AVC 0:01:20 221,767,680 41,806,434,340 21.97 17.56 DTS 5.1 1509Kbps (48kHz/16-bit) LPCM 2.0 1536Kbps (48kHz/16-bit)[/code]
[code]DISC INFO:

Disc Title: THE_PRODIGY_WORLDS_ON_FIRE
Disc Size: 41,806,434,340 bytes
Protection: AACS
BD-Java: No
BDInfo: 0.5.6

PLAYLIST REPORT:

Name: 00029.MPLS
Length: 0:01:20 (h:m:s)
Size: 221,767,680 bytes
Total Bitrate: 21.97 Mbps

VIDEO:

Codec Bitrate Description
----- ------- -----------
MPEG-4 AVC Video 17564 kbps 1080i / 29.970 fps / 16:9 / High Profile 4.1

AUDIO:

Codec Language Bitrate Description
----- -------- ------- -----------
DTS Audio English 1509 kbps 5.1 / 48 kHz / 1509 kbps / 16-bit
LPCM Audio English 1536 kbps 2.0 / 48 kHz / 1536 kbps / 16-bit

FILES:

Name Time In Length Size Total Bitrate
---- ------- ------ ---- -------------
00033.M2TS 0:00:00.000 0:01:20.747 221,767,680 21,972

CHAPTERS:

Number Time In Length Avg Video Rate Max 1-Sec Rate Max 1-Sec Time Max 5-Sec Rate Max 5-Sec Time Max 10Sec Rate Max 10Sec Time Avg Frame Size Max Frame Size Max Frame Time
------ ------- ------ -------------- -------------- -------------- -------------- -------------- -------------- -------------- -------------- -------------- --------------
1 0:00:00.000 0:01:20.747 17,564 kbps 37,076 kbps 00:01:18.912 27,082 kbps 00:01:15.642 22,924 kbps 00:01:10.437 73,257 bytes 334,663 bytes 00:01:20.213

STREAM DIAGNOSTICS:

File PID Type Codec Language Seconds Bitrate Bytes Packets
---- --- ---- ----- -------- -------------- -------------- ------------- -----
00033.M2TS 4113 (0x1011) 0x1B AVC 80.614 17,593 177,282,606 964,902
00033.M2TS 4352 (0x1100) 0x80 LPCM eng (English) 80.614 1,545 15,568,600 96,900
00033.M2TS 4353 (0x1101) 0x82 DTS eng (English) 80.614 1,506 15,180,033 90,492[/code]
<---- END FORUMS PASTE ---->

QUICK SUMMARY:

Disc Title: THE_PRODIGY_WORLDS_ON_FIRE
Disc Size: 41,806,434,340 bytes
Protection: AACS
BD-Java: No
Playlist: 00029.MPLS
Size: 221,767,680 bytes
Length: 0:01:20
Total Bitrate: 21.97 Mbps
Video: MPEG-4 AVC Video / 17564 kbps / 1080i / 29.970 fps / 16:9 / High Profile 4.1
Audio: English / DTS Audio / 5.1 / 48 kHz / 1509 kbps / 16-bit
Audio: English / LPCM Audio / 2.0 / 48 kHz / 1536 kbps / 16-bit

********************
PLAYLIST: 00026.MPLS
********************

<--- BEGIN FORUMS PASTE --->
[code]Total Video
Title Codec Length Movie Size Disc Size Bitrate Bitrate Main Audio Track Secondary Audio Track
----- ------ ------- -------------- -------------- ------- ------- ------------------ ---------------------
00026.MPLS AVC 1:06:26 17,611,309,056 41,806,434,340 35.34 26.12 DTS-HD Master 5.1 5085Kbps (48kHz/24-bit) LPCM 2.0 2304Kbps (48kHz/24-bit)[/code]
[code]DISC INFO:

Disc Title: THE_PRODIGY_WORLDS_ON_FIRE
Disc Size: 41,806,434,340 bytes
Protection: AACS
BD-Java: No
BDInfo: 0.5.6

PLAYLIST REPORT:

Name: 00026.MPLS
Length: 1:06:26 (h:m:s)
Size: 17,611,309,056 bytes
Total Bitrate: 35.34 Mbps

VIDEO:

Codec Bitrate Description
----- ------- -----------
MPEG-4 AVC Video 26120 kbps 1080i / 29.970 fps / 16:9 / High Profile 4.1

AUDIO:

Codec Language Bitrate Description
----- -------- ------- -----------
DTS-HD Master Audio English 5085 kbps 5.1 / 48 kHz / 5085 kbps / 24-bit (DTS Core: 5.1 / 48 kHz / 1509 kbps / 24-bit)
LPCM Audio English 2304 kbps 2.0 / 48 kHz / 2304 kbps / 24-bit

FILES:

Name Time In Length Size Total Bitrate
---- ------- ------ ---- -------------
00004.M2TS 0:00:00.000 0:06:50.510 1,952,514,048 38,050
00006.M2TS 0:06:50.510 0:10:54.387 2,968,018,944 36,285
00001.M2TS 0:17:44.897 0:05:17.183 1,141,825,536 28,799
00003.M2TS 0:23:02.080 0:07:20.540 1,975,007,232 35,865
00009.M2TS 0:30:22.620 0:05:54.721 1,275,346,944 28,763
00007.M2TS 0:36:17.341 0:05:31.364 1,472,520,192 35,550
00005.M2TS 0:41:48.706 0:06:35.728 1,895,712,768 38,323
00010.M2TS 0:48:24.434 0:05:29.562 1,565,048,832 37,991
00002.M2TS 0:53:53.997 0:06:33.359 1,808,965,632 36,790
00008.M2TS 1:00:27.357 0:05:59.592 1,556,348,928 34,625

CHAPTERS:

Number Time In Length Avg Video Rate Max 1-Sec Rate Max 1-Sec Time Max 5-Sec Rate Max 5-Sec Time Max 10Sec Rate Max 10Sec Time Avg Frame Size Max Frame Size Max Frame Time
------ ------- ------ -------------- -------------- -------------- -------------- -------------- -------------- -------------- -------------- -------------- --------------
1 0:00:00.000 0:06:50.476 28,676 kbps 39,596 kbps 00:00:18.885 35,410 kbps 00:00:14.881 33,831 kbps 00:00:10.310 119,594 bytes 544,650 bytes 00:00:19.052
2 0:06:50.476 0:10:54.387 26,966 kbps 45,770 kbps 00:07:30.950 38,184 kbps 00:11:42.968 33,545 kbps 00:11:41.200 112,471 bytes 524,314 bytes 00:11:46.972
3 0:17:44.863 0:05:17.183 19,923 kbps 40,318 kbps 00:21:42.968 34,111 kbps 00:22:06.324 33,050 kbps 00:22:03.789 83,094 bytes 428,171 bytes 00:21:39.665
4 0:23:02.047 0:07:20.540 26,571 kbps 40,842 kbps 00:26:28.320 35,367 kbps 00:23:17.429 32,895 kbps 00:23:15.527 110,825 bytes 463,889 bytes 00:28:44.089
5 0:30:22.587 0:05:54.721 19,747 kbps 38,973 kbps 00:30:43.741 35,327 kbps 00:30:39.737 28,275 kbps 00:30:37.502 82,360 bytes 439,908 bytes 00:30:43.074
6 0:36:17.308 0:05:31.364 26,502 kbps 39,880 kbps 00:37:26.110 35,937 kbps 00:36:40.097 35,002 kbps 00:36:38.095 110,535 bytes 383,132 bytes 00:39:44.215
7 0:41:48.672 0:06:35.728 28,920 kbps 46,761 kbps 00:41:54.812 36,735 kbps 00:41:53.043 32,472 kbps 00:41:53.043 120,621 bytes 446,077 bytes 00:41:54.878
8 0:48:24.401 0:05:29.562 28,611 kbps 45,925 kbps 00:48:39.149 36,912 kbps 00:48:36.780 35,160 kbps 00:48:35.712 119,332 bytes 481,310 bytes 00:48:39.950
9 0:53:53.964 0:06:33.359 27,538 kbps 43,541 kbps 00:54:45.682 36,207 kbps 00:56:14.337 33,690 kbps 00:56:57.780 114,855 bytes 464,934 bytes 00:56:14.804
10 1:00:27.323 0:05:59.625 25,598 kbps 43,195 kbps 01:01:02.959 35,297 kbps 01:01:00.857 33,782 kbps 01:05:42.238 106,774 bytes 458,156 bytes 01:06:18.674

STREAM DIAGNOSTICS:

File PID Type Codec Language Seconds Bitrate Bytes Packets
---- --- ---- ----- -------- -------------- -------------- ------------- -----
00004.M2TS 4113 (0x1011) 0x1B AVC 410.410 28,681 1,471,366,892 8,003,867
00004.M2TS 4352 (0x1100) 0x80 LPCM eng (English) 410.410 2,311 118,546,624 656,768
00004.M2TS 4353 (0x1101) 0x86 DTS-HD MA eng (English) 410.410 5,133 263,311,056 1,494,924
00006.M2TS 4113 (0x1011) 0x1B AVC 654.254 26,972 2,205,786,706 11,999,572
00006.M2TS 4352 (0x1100) 0x80 LPCM eng (English) 654.254 2,311 188,987,832 1,047,024
00006.M2TS 4353 (0x1101) 0x86 DTS-HD MA eng (English) 654.254 5,147 420,951,704 2,389,868
00001.M2TS 4113 (0x1011) 0x1B AVC 317.083 19,929 789,893,495 4,298,536
00001.M2TS 4352 (0x1100) 0x80 LPCM eng (English) 317.083 2,311 91,594,364 507,448
00001.M2TS 4353 (0x1101) 0x86 DTS-HD MA eng (English) 317.083 5,019 198,944,308 1,130,359
00003.M2TS 4113 (0x1011) 0x1B AVC 440.407 26,579 1,463,219,610 7,960,028
00003.M2TS 4352 (0x1100) 0x80 LPCM eng (English) 440.407 2,311 127,229,396 704,872
00003.M2TS 4353 (0x1101) 0x86 DTS-HD MA eng (English) 440.407 5,140 282,983,944 1,606,798
00009.M2TS 4113 (0x1011) 0x1B AVC 354.621 19,752 875,573,246 4,764,888
00009.M2TS 4352 (0x1100) 0x80 LPCM eng (English) 354.621 2,311 102,444,580 567,560
00009.M2TS 4353 (0x1101) 0x86 DTS-HD MA eng (English) 354.621 5,159 228,679,948 1,298,075
00007.M2TS 4113 (0x1011) 0x1B AVC 331.298 26,507 1,097,726,834 5,971,851
00007.M2TS 4352 (0x1100) 0x80 LPCM eng (English) 331.298 2,311 95,698,212 530,184
00007.M2TS 4353 (0x1101) 0x86 DTS-HD MA eng (English) 331.298 4,907 203,207,472 1,156,198
00005.M2TS 4113 (0x1011) 0x1B AVC 395.662 28,925 1,430,562,494 7,781,848
00005.M2TS 4352 (0x1100) 0x80 LPCM eng (English) 395.662 2,311 114,278,160 633,120
00005.M2TS 4353 (0x1101) 0x86 DTS-HD MA eng (English) 395.662 5,148 254,631,436 1,445,236
00010.M2TS 4113 (0x1011) 0x1B AVC 329.496 28,617 1,178,646,526 6,411,519
00010.M2TS 4352 (0x1100) 0x80 LPCM eng (English) 329.496 2,311 95,178,372 527,304
00010.M2TS 4353 (0x1101) 0x86 DTS-HD MA eng (English) 329.496 5,136 211,537,856 1,201,401
00002.M2TS 4113 (0x1011) 0x1B AVC 393.260 27,545 1,354,021,047 7,365,782
00002.M2TS 4352 (0x1100) 0x80 LPCM eng (English) 393.260 2,311 113,603,812 629,384
00002.M2TS 4353 (0x1101) 0x86 DTS-HD MA eng (English) 393.260 5,060 248,751,012 1,413,300
00008.M2TS 4113 (0x1011) 0x1B AVC 359.459 25,610 1,150,699,933 6,260,164
00008.M2TS 4352 (0x1100) 0x80 LPCM eng (English) 359.459 2,311 103,851,036 575,352
00008.M2TS 4353 (0x1101) 0x86 DTS-HD MA eng (English) 359.459 4,923 221,187,028 1,258,374[/code]
<---- END FORUMS PASTE ---->

QUICK SUMMARY:

Disc Title: THE_PRODIGY_WORLDS_ON_FIRE
Disc Size: 41,806,434,340 bytes
Protection: AACS
BD-Java: No
Playlist: 00026.MPLS
Size: 17,611,309,056 bytes
Length: 1:06:26
Total Bitrate: 35.34 Mbps
Video: MPEG-4 AVC Video / 26120 kbps / 1080i / 29.970 fps / 16:9 / High Profile 4.1
Audio: English / DTS-HD Master Audio / 5.1 / 48 kHz / 5085 kbps / 24-bit (DTS Core: 5.1 / 48 kHz / 1509 kbps / 24-bit)
Audio: English / LPCM Audio / 2.0 / 48 kHz / 2304 kbps / 24-bit

********************
PLAYLIST: 00006.MPLS
********************

<--- BEGIN FORUMS PASTE --->
[code]Total Video
Title Codec Length Movie Size Disc Size Bitrate Bitrate Main Audio Track Secondary Audio Track
----- ------ ------- -------------- -------------- ------- ------- ------------------ ---------------------
00006.MPLS AVC 0:10:54 2,968,018,944 41,806,434,340 36.28 26.97 DTS-HD Master 5.1 5146Kbps (48kHz/24-bit) LPCM 2.0 2304Kbps (48kHz/24-bit)[/code]
[code]DISC INFO:

Disc Title: THE_PRODIGY_WORLDS_ON_FIRE
Disc Size: 41,806,434,340 bytes
Protection: AACS
BD-Java: No
BDInfo: 0.5.6

PLAYLIST REPORT:

Name: 00006.MPLS
Length: 0:10:54 (h:m:s)
Size: 2,968,018,944 bytes
Total Bitrate: 36.28 Mbps

VIDEO:

Codec Bitrate Description
----- ------- -----------
MPEG-4 AVC Video 26966 kbps 1080i / 29.970 fps / 16:9 / High Profile 4.1

AUDIO:

Codec Language Bitrate Description
----- -------- ------- -----------
DTS-HD Master Audio English 5146 kbps 5.1 / 48 kHz / 5146 kbps / 24-bit (DTS Core: 5.1 / 48 kHz / 1509 kbps / 24-bit)
LPCM Audio English 2304 kbps 2.0 / 48 kHz / 2304 kbps / 24-bit

FILES:

Name Time In Length Size Total Bitrate
---- ------- ------ ---- -------------
00006.M2TS 0:00:00.000 0:10:54.387 2,968,018,944 36,285

CHAPTERS:

Number Time In Length Avg Video Rate Max 1-Sec Rate Max 1-Sec Time Max 5-Sec Rate Max 5-Sec Time Max 10Sec Rate Max 10Sec Time Avg Frame Size Max Frame Size Max Frame Time
------ ------- ------ -------------- -------------- -------------- -------------- -------------- -------------- -------------- -------------- -------------- --------------
1 0:00:00.000 0:10:54.387 26,966 kbps 45,770 kbps 00:00:40.440 38,184 kbps 00:04:52.458 33,545 kbps 00:04:50.690 112,471 bytes 524,314 bytes 00:04:56.462

STREAM DIAGNOSTICS:

File PID Type Codec Language Seconds Bitrate Bytes Packets
---- --- ---- ----- -------- -------------- -------------- ------------- -----
00006.M2TS 4113 (0x1011) 0x1B AVC 654.254 26,972 2,205,786,706 11,999,572
00006.M2TS 4352 (0x1100) 0x80 LPCM eng (English) 654.254 2,311 188,987,832 1,047,024
00006.M2TS 4353 (0x1101) 0x86 DTS-HD MA eng (English) 654.254 5,147 420,951,704 2,389,868[/code]
<---- END FORUMS PASTE ---->

QUICK SUMMARY:

Disc Title: THE_PRODIGY_WORLDS_ON_FIRE
Disc Size: 41,806,434,340 bytes
Protection: AACS
BD-Java: No
Playlist: 00006.MPLS
Size: 2,968,018,944 bytes
Length: 0:10:54
Total Bitrate: 36.28 Mbps
Video: MPEG-4 AVC Video / 26966 kbps / 1080i / 29.970 fps / 16:9 / High Profile 4.1
Audio: English / DTS-HD Master Audio / 5.1 / 48 kHz / 5146 kbps / 24-bit (DTS Core: 5.1 / 48 kHz / 1509 kbps / 24-bit)
Audio: English / LPCM Audio / 2.0 / 48 kHz / 2304 kbps / 24-bit

********************
PLAYLIST: 00003.MPLS
********************

<--- BEGIN FORUMS PASTE --->
[code]Total Video
Title Codec Length Movie Size Disc Size Bitrate Bitrate Main Audio Track Secondary Audio Track
----- ------ ------- -------------- -------------- ------- ------- ------------------ ---------------------
00003.MPLS AVC 0:07:20 1,975,007,232 41,806,434,340 35.87 26.57 DTS-HD Master 5.1 5139Kbps (48kHz/24-bit) LPCM 2.0 2304Kbps (48kHz/24-bit)[/code]
[code]DISC INFO:

Disc Title: THE_PRODIGY_WORLDS_ON_FIRE
Disc Size: 41,806,434,340 bytes
Protection: AACS
BD-Java: No
BDInfo: 0.5.6

PLAYLIST REPORT:

Name: 00003.MPLS
Length: 0:07:20 (h:m:s)
Size: 1,975,007,232 bytes
Total Bitrate: 35.87 Mbps

VIDEO:

Codec Bitrate Description
----- ------- -----------
MPEG-4 AVC Video 26571 kbps 1080i / 29.970 fps / 16:9 / High Profile 4.1

AUDIO:

Codec Language Bitrate Description
----- -------- ------- -----------
DTS-HD Master Audio English 5139 kbps 5.1 / 48 kHz / 5139 kbps / 24-bit (DTS Core: 5.1 / 48 kHz / 1509 kbps / 24-bit)
LPCM Audio English 2304 kbps 2.0 / 48 kHz / 2304 kbps / 24-bit

FILES:

Name Time In Length Size Total Bitrate
---- ------- ------ ---- -------------
00003.M2TS 0:00:00.000 0:07:20.540 1,975,007,232 35,865

CHAPTERS:

Number Time In Length Avg Video Rate Max 1-Sec Rate Max 1-Sec Time Max 5-Sec Rate Max 5-Sec Time Max 10Sec Rate Max 10Sec Time Avg Frame Size Max Frame Size Max Frame Time
------ ------- ------ -------------- -------------- -------------- -------------- -------------- -------------- -------------- -------------- -------------- --------------
1 0:00:00.000 0:07:20.540 26,571 kbps 40,842 kbps 00:03:26.239 35,367 kbps 00:00:15.348 32,895 kbps 00:00:13.446 110,825 bytes 463,889 bytes 00:05:42.008

STREAM DIAGNOSTICS:

File PID Type Codec Language Seconds Bitrate Bytes Packets
---- --- ---- ----- -------- -------------- -------------- ------------- -----
00003.M2TS 4113 (0x1011) 0x1B AVC 440.407 26,579 1,463,219,610 7,960,028
00003.M2TS 4352 (0x1100) 0x80 LPCM eng (English) 440.407 2,311 127,229,396 704,872
00003.M2TS 4353 (0x1101) 0x86 DTS-HD MA eng (English) 440.407 5,140 282,983,944 1,606,798[/code]
<---- END FORUMS PASTE ---->

QUICK SUMMARY:

Disc Title: THE_PRODIGY_WORLDS_ON_FIRE
Disc Size: 41,806,434,340 bytes
Protection: AACS
BD-Java: No
Playlist: 00003.MPLS
Size: 1,975,007,232 bytes
Length: 0:07:20
Total Bitrate: 35.87 Mbps
Video: MPEG-4 AVC Video / 26571 kbps / 1080i / 29.970 fps / 16:9 / High Profile 4.1
Audio: English / DTS-HD Master Audio / 5.1 / 48 kHz / 5139 kbps / 24-bit (DTS Core: 5.1 / 48 kHz / 1509 kbps / 24-bit)
Audio: English / LPCM Audio / 2.0 / 48 kHz / 2304 kbps / 24-bit

********************
PLAYLIST: 00004.MPLS
********************

<--- BEGIN FORUMS PASTE --->
[code]Total Video
Title Codec Length Movie Size Disc Size Bitrate Bitrate Main Audio Track Secondary Audio Track
----- ------ ------- -------------- -------------- ------- ------- ------------------ ---------------------
00004.MPLS AVC 0:06:50 1,952,514,048 41,806,434,340 38.05 28.67 DTS-HD Master 5.1 5131Kbps (48kHz/24-bit) LPCM 2.0 2304Kbps (48kHz/24-bit)[/code]
[code]DISC INFO:

Disc Title: THE_PRODIGY_WORLDS_ON_FIRE
Disc Size: 41,806,434,340 bytes
Protection: AACS
BD-Java: No
BDInfo: 0.5.6

PLAYLIST REPORT:

Name: 00004.MPLS
Length: 0:06:50 (h:m:s)
Size: 1,952,514,048 bytes
Total Bitrate: 38.05 Mbps

VIDEO:

Codec Bitrate Description
----- ------- -----------
MPEG-4 AVC Video 28674 kbps 1080i / 29.970 fps / 16:9 / High Profile 4.1

AUDIO:

Codec Language Bitrate Description
----- -------- ------- -----------
DTS-HD Master Audio English 5131 kbps 5.1 / 48 kHz / 5131 kbps / 24-bit (DTS Core: 5.1 / 48 kHz / 1509 kbps / 24-bit)
LPCM Audio English 2304 kbps 2.0 / 48 kHz / 2304 kbps / 24-bit

FILES:

Name Time In Length Size Total Bitrate
---- ------- ------ ---- -------------
00004.M2TS 0:00:00.000 0:06:50.510 1,952,514,048 38,050

CHAPTERS:

Number Time In Length Avg Video Rate Max 1-Sec Rate Max 1-Sec Time Max 5-Sec Rate Max 5-Sec Time Max 10Sec Rate Max 10Sec Time Avg Frame Size Max Frame Size Max Frame Time
------ ------- ------ -------------- -------------- -------------- -------------- -------------- -------------- -------------- -------------- -------------- --------------
1 0:00:00.000 0:06:50.510 28,674 kbps 39,596 kbps 00:00:18.885 35,410 kbps 00:00:14.881 33,831 kbps 00:00:10.310 119,594 bytes 544,650 bytes 00:00:19.052

STREAM DIAGNOSTICS:

File PID Type Codec Language Seconds Bitrate Bytes Packets
---- --- ---- ----- -------- -------------- -------------- ------------- -----
00004.M2TS 4113 (0x1011) 0x1B AVC 410.410 28,681 1,471,366,892 8,003,867
00004.M2TS 4352 (0x1100) 0x80 LPCM eng (English) 410.410 2,311 118,546,624 656,768
00004.M2TS 4353 (0x1101) 0x86 DTS-HD MA eng (English) 410.410 5,133 263,311,056 1,494,924[/code]
<---- END FORUMS PASTE ---->

QUICK SUMMARY:

Disc Title: THE_PRODIGY_WORLDS_ON_FIRE
Disc Size: 41,806,434,340 bytes
Protection: AACS
BD-Java: No
Playlist: 00004.MPLS
Size: 1,952,514,048 bytes
Length: 0:06:50
Total Bitrate: 38.05 Mbps
Video: MPEG-4 AVC Video / 28674 kbps / 1080i / 29.970 fps / 16:9 / High Profile 4.1
Audio: English / DTS-HD Master Audio / 5.1 / 48 kHz / 5131 kbps / 24-bit (DTS Core: 5.1 / 48 kHz / 1509 kbps / 24-bit)
Audio: English / LPCM Audio / 2.0 / 48 kHz / 2304 kbps / 24-bit

********************
PLAYLIST: 00005.MPLS
********************

<--- BEGIN FORUMS PASTE --->
[code]Total Video
Title Codec Length Movie Size Disc Size Bitrate Bitrate Main Audio Track Secondary Audio Track
----- ------ ------- -------------- -------------- ------- ------- ------------------ ---------------------
00005.MPLS AVC 0:06:35 1,895,712,768 41,806,434,340 38.32 28.92 DTS-HD Master 5.1 5148Kbps (48kHz/24-bit) LPCM 2.0 2304Kbps (48kHz/24-bit)[/code]
[code]DISC INFO:

Disc Title: THE_PRODIGY_WORLDS_ON_FIRE
Disc Size: 41,806,434,340 bytes
Protection: AACS
BD-Java: No
BDInfo: 0.5.6

PLAYLIST REPORT:

Name: 00005.MPLS
Length: 0:06:35 (h:m:s)
Size: 1,895,712,768 bytes
Total Bitrate: 38.32 Mbps

VIDEO:

Codec Bitrate Description
----- ------- -----------
MPEG-4 AVC Video 28920 kbps 1080i / 29.970 fps / 16:9 / High Profile 4.1

AUDIO:

Codec Language Bitrate Description
----- -------- ------- -----------
DTS-HD Master Audio English 5148 kbps 5.1 / 48 kHz / 5148 kbps / 24-bit (DTS Core: 5.1 / 48 kHz / 1509 kbps / 24-bit)
LPCM Audio English 2304 kbps 2.0 / 48 kHz / 2304 kbps / 24-bit

FILES:

Name Time In Length Size Total Bitrate
---- ------- ------ ---- -------------
00005.M2TS 0:00:00.000 0:06:35.728 1,895,712,768 38,323

CHAPTERS:

Number Time In Length Avg Video Rate Max 1-Sec Rate Max 1-Sec Time Max 5-Sec Rate Max 5-Sec Time Max 10Sec Rate Max 10Sec Time Avg Frame Size Max Frame Size Max Frame Time
------ ------- ------ -------------- -------------- -------------- -------------- -------------- -------------- -------------- -------------- -------------- --------------
1 0:00:00.000 0:06:35.728 28,920 kbps 46,761 kbps 00:00:06.106 36,735 kbps 00:00:04.337 32,472 kbps 00:00:04.337 120,621 bytes 446,077 bytes 00:00:06.172

STREAM DIAGNOSTICS:

File PID Type Codec Language Seconds Bitrate Bytes Packets
---- --- ---- ----- -------- -------------- -------------- ------------- -----
00005.M2TS 4113 (0x1011) 0x1B AVC 395.662 28,925 1,430,562,494 7,781,848
00005.M2TS 4352 (0x1100) 0x80 LPCM eng (English) 395.662 2,311 114,278,160 633,120
00005.M2TS 4353 (0x1101) 0x86 DTS-HD MA eng (English) 395.662 5,148 254,631,436 1,445,236[/code]
<---- END FORUMS PASTE ---->

QUICK SUMMARY:

Disc Title: THE_PRODIGY_WORLDS_ON_FIRE
Disc Size: 41,806,434,340 bytes
Protection: AACS
BD-Java: No
Playlist: 00005.MPLS
Size: 1,895,712,768 bytes
Length: 0:06:35
Total Bitrate: 38.32 Mbps
Video: MPEG-4 AVC Video / 28920 kbps / 1080i / 29.970 fps / 16:9 / High Profile 4.1
Audio: English / DTS-HD Master Audio / 5.1 / 48 kHz / 5148 kbps / 24-bit (DTS Core: 5.1 / 48 kHz / 1509 kbps / 24-bit)
Audio: English / LPCM Audio / 2.0 / 48 kHz / 2304 kbps / 24-bit

********************
PLAYLIST: 00002.MPLS
********************

<--- BEGIN FORUMS PASTE --->
[code]Total Video
Title Codec Length Movie Size Disc Size Bitrate Bitrate Main Audio Track Secondary Audio Track
----- ------ ------- -------------- -------------- ------- ------- ------------------ ---------------------
00002.MPLS AVC 0:06:33 1,808,965,632 41,806,434,340 36.79 27.54 DTS-HD Master 5.1 5059Kbps (48kHz/24-bit) LPCM 2.0 2304Kbps (48kHz/24-bit)[/code]
[code]DISC INFO:

Disc Title: THE_PRODIGY_WORLDS_ON_FIRE
Disc Size: 41,806,434,340 bytes
Protection: AACS
BD-Java: No
BDInfo: 0.5.6

PLAYLIST REPORT:

Name: 00002.MPLS
Length: 0:06:33 (h:m:s)
Size: 1,808,965,632 bytes
Total Bitrate: 36.79 Mbps

VIDEO:

Codec Bitrate Description
----- ------- -----------
MPEG-4 AVC Video 27538 kbps 1080i / 29.970 fps / 16:9 / High Profile 4.1

AUDIO:

Codec Language Bitrate Description
----- -------- ------- -----------
DTS-HD Master Audio English 5059 kbps 5.1 / 48 kHz / 5059 kbps / 24-bit (DTS Core: 5.1 / 48 kHz / 1509 kbps / 24-bit)
LPCM Audio English 2304 kbps 2.0 / 48 kHz / 2304 kbps / 24-bit

FILES:

Name Time In Length Size Total Bitrate
---- ------- ------ ---- -------------
00002.M2TS 0:00:00.000 0:06:33.359 1,808,965,632 36,790

CHAPTERS:

Number Time In Length Avg Video Rate Max 1-Sec Rate Max 1-Sec Time Max 5-Sec Rate Max 5-Sec Time Max 10Sec Rate Max 10Sec Time Avg Frame Size Max Frame Size Max Frame Time
------ ------- ------ -------------- -------------- -------------- -------------- -------------- -------------- -------------- -------------- -------------- --------------
1 0:00:00.000 0:06:33.359 27,538 kbps 43,541 kbps 00:00:51.684 36,207 kbps 00:02:20.340 33,690 kbps 00:03:03.783 114,855 bytes 464,934 bytes 00:02:20.807

STREAM DIAGNOSTICS:

File PID Type Codec Language Seconds Bitrate Bytes Packets
---- --- ---- ----- -------- -------------- -------------- ------------- -----
00002.M2TS 4113 (0x1011) 0x1B AVC 393.260 27,545 1,354,021,047 7,365,782
00002.M2TS 4352 (0x1100) 0x80 LPCM eng (English) 393.260 2,311 113,603,812 629,384
00002.M2TS 4353 (0x1101) 0x86 DTS-HD MA eng (English) 393.260 5,060 248,751,012 1,413,300[/code]
<---- END FORUMS PASTE ---->

QUICK SUMMARY:

Disc Title: THE_PRODIGY_WORLDS_ON_FIRE
Disc Size: 41,806,434,340 bytes
Protection: AACS
BD-Java: No
Playlist: 00002.MPLS
Size: 1,808,965,632 bytes
Length: 0:06:33
Total Bitrate: 36.79 Mbps
Video: MPEG-4 AVC Video / 27538 kbps / 1080i / 29.970 fps / 16:9 / High Profile 4.1
Audio: English / DTS-HD Master Audio / 5.1 / 48 kHz / 5059 kbps / 24-bit (DTS Core: 5.1 / 48 kHz / 1509 kbps / 24-bit)
Audio: English / LPCM Audio / 2.0 / 48 kHz / 2304 kbps / 24-bit

********************
PLAYLIST: 00008.MPLS
********************

<--- BEGIN FORUMS PASTE --->
[code]Total Video
Title Codec Length Movie Size Disc Size Bitrate Bitrate Main Audio Track Secondary Audio Track
----- ------ ------- -------------- -------------- ------- ------- ------------------ ---------------------
00008.MPLS AVC 0:05:59 1,556,348,928 41,806,434,340 34.62 25.60 DTS-HD Master 5.1 4921Kbps (48kHz/24-bit) LPCM 2.0 2304Kbps (48kHz/24-bit)[/code]
[code]DISC INFO:

Disc Title: THE_PRODIGY_WORLDS_ON_FIRE
Disc Size: 41,806,434,340 bytes
Protection: AACS
BD-Java: No
BDInfo: 0.5.6

PLAYLIST REPORT:

Name: 00008.MPLS
Length: 0:05:59 (h:m:s)
Size: 1,556,348,928 bytes
Total Bitrate: 34.62 Mbps

VIDEO:

Codec Bitrate Description
----- ------- -----------
MPEG-4 AVC Video 25600 kbps 1080i / 29.970 fps / 16:9 / High Profile 4.1

AUDIO:

Codec Language Bitrate Description
----- -------- ------- -----------
DTS-HD Master Audio English 4921 kbps 5.1 / 48 kHz / 4921 kbps / 24-bit (DTS Core: 5.1 / 48 kHz / 1509 kbps / 24-bit)
LPCM Audio English 2304 kbps 2.0 / 48 kHz / 2304 kbps / 24-bit

FILES:

Name Time In Length Size Total Bitrate
---- ------- ------ ---- -------------
00008.M2TS 0:00:00.000 0:05:59.592 1,556,348,928 34,625

CHAPTERS:

Number Time In Length Avg Video Rate Max 1-Sec Rate Max 1-Sec Time Max 5-Sec Rate Max 5-Sec Time Max 10Sec Rate Max 10Sec Time Avg Frame Size Max Frame Size Max Frame Time
------ ------- ------ -------------- -------------- -------------- -------------- -------------- -------------- -------------- -------------- -------------- --------------
1 0:00:00.000 0:05:58.558 25,674 kbps 43,195 kbps 00:00:35.602 35,297 kbps 00:00:33.500 33,782 kbps 00:05:14.881 107,070 bytes 458,156 bytes 00:05:51.317
2 0:05:58.558 0:00:01.034 129 kbps 134 kbps 00:05:58.558 0 kbps 00:00:00.000 0 kbps 00:00:00.000 558 bytes 2,885 bytes 00:05:58.591

STREAM DIAGNOSTICS:

File PID Type Codec Language Seconds Bitrate Bytes Packets
---- --- ---- ----- -------- -------------- -------------- ------------- -----
00008.M2TS 4113 (0x1011) 0x1B AVC 359.459 25,610 1,150,699,933 6,260,164
00008.M2TS 4352 (0x1100) 0x80 LPCM eng (English) 359.459 2,311 103,851,036 575,352
00008.M2TS 4353 (0x1101) 0x86 DTS-HD MA eng (English) 359.459 4,923 221,187,028 1,258,374[/code]
<---- END FORUMS PASTE ---->

QUICK SUMMARY:

Disc Title: THE_PRODIGY_WORLDS_ON_FIRE
Disc Size: 41,806,434,340 bytes
Protection: AACS
BD-Java: No
Playlist: 00008.MPLS
Size: 1,556,348,928 bytes
Length: 0:05:59
Total Bitrate: 34.62 Mbps
Video: MPEG-4 AVC Video / 25600 kbps / 1080i / 29.970 fps / 16:9 / High Profile 4.1
Audio: English / DTS-HD Master Audio / 5.1 / 48 kHz / 4921 kbps / 24-bit (DTS Core: 5.1 / 48 kHz / 1509 kbps / 24-bit)
Audio: English / LPCM Audio / 2.0 / 48 kHz / 2304 kbps / 24-bit

********************
PLAYLIST: 00009.MPLS
********************

<--- BEGIN FORUMS PASTE --->
[code]Total Video
Title Codec Length Movie Size Disc Size Bitrate Bitrate Main Audio Track Secondary Audio Track
----- ------ ------- -------------- -------------- ------- ------- ------------------ ---------------------
00009.MPLS AVC 0:05:54 1,275,346,944 41,806,434,340 28.76 19.75 DTS-HD Master 5.1 5157Kbps (48kHz/24-bit) LPCM 2.0 2304Kbps (48kHz/24-bit)[/code]
[code]DISC INFO:

Disc Title: THE_PRODIGY_WORLDS_ON_FIRE
Disc Size: 41,806,434,340 bytes
Protection: AACS
BD-Java: No
BDInfo: 0.5.6

PLAYLIST REPORT:

Name: 00009.MPLS
Length: 0:05:54 (h:m:s)
Size: 1,275,346,944 bytes
Total Bitrate: 28.76 Mbps

VIDEO:

Codec Bitrate Description
----- ------- -----------
MPEG-4 AVC Video 19747 kbps 1080i / 29.970 fps / 16:9 / High Profile 4.1

AUDIO:

Codec Language Bitrate Description
----- -------- ------- -----------
DTS-HD Master Audio English 5157 kbps 5.1 / 48 kHz / 5157 kbps / 24-bit (DTS Core: 5.1 / 48 kHz / 1509 kbps / 24-bit)
LPCM Audio English 2304 kbps 2.0 / 48 kHz / 2304 kbps / 24-bit

FILES:

Name Time In Length Size Total Bitrate
---- ------- ------ ---- -------------
00009.M2TS 0:00:00.000 0:05:54.721 1,275,346,944 28,763

CHAPTERS:

Number Time In Length Avg Video Rate Max 1-Sec Rate Max 1-Sec Time Max 5-Sec Rate Max 5-Sec Time Max 10Sec Rate Max 10Sec Time Avg Frame Size Max Frame Size Max Frame Time
------ ------- ------ -------------- -------------- -------------- -------------- -------------- -------------- -------------- -------------- -------------- --------------
1 0:00:00.000 0:05:54.721 19,747 kbps 38,973 kbps 00:00:21.121 35,327 kbps 00:00:17.117 28,275 kbps 00:00:14.881 82,360 bytes 439,908 bytes 00:00:20.453

STREAM DIAGNOSTICS:

File PID Type Codec Language Seconds Bitrate Bytes Packets
---- --- ---- ----- -------- -------------- -------------- ------------- -----
00009.M2TS 4113 (0x1011) 0x1B AVC 354.621 19,752 875,573,246 4,764,888
00009.M2TS 4352 (0x1100) 0x80 LPCM eng (English) 354.621 2,311 102,444,580 567,560
00009.M2TS 4353 (0x1101) 0x86 DTS-HD MA eng (English) 354.621 5,159 228,679,948 1,298,075[/code]
<---- END FORUMS PASTE ---->

QUICK SUMMARY:

Disc Title: THE_PRODIGY_WORLDS_ON_FIRE
Disc Size: 41,806,434,340 bytes
Protection: AACS
BD-Java: No
Playlist: 00009.MPLS
Size: 1,275,346,944 bytes
Length: 0:05:54
Total Bitrate: 28.76 Mbps
Video: MPEG-4 AVC Video / 19747 kbps / 1080i / 29.970 fps / 16:9 / High Profile 4.1
Audio: English / DTS-HD Master Audio / 5.1 / 48 kHz / 5157 kbps / 24-bit (DTS Core: 5.1 / 48 kHz / 1509 kbps / 24-bit)
Audio: English / LPCM Audio / 2.0 / 48 kHz / 2304 kbps / 24-bit

********************
PLAYLIST: 00007.MPLS
********************

<--- BEGIN FORUMS PASTE --->
[code]Total Video
Title Codec Length Movie Size Disc Size Bitrate Bitrate Main Audio Track Secondary Audio Track
----- ------ ------- -------------- -------------- ------- ------- ------------------ ---------------------
00007.MPLS AVC 0:05:31 1,472,520,192 41,806,434,340 35.55 26.50 DTS-HD Master 5.1 4906Kbps (48kHz/24-bit) LPCM 2.0 2304Kbps (48kHz/24-bit)[/code]
[code]DISC INFO:

Disc Title: THE_PRODIGY_WORLDS_ON_FIRE
Disc Size: 41,806,434,340 bytes
Protection: AACS
BD-Java: No
BDInfo: 0.5.6

PLAYLIST REPORT:

Name: 00007.MPLS
Length: 0:05:31 (h:m:s)
Size: 1,472,520,192 bytes
Total Bitrate: 35.55 Mbps

VIDEO:

Codec Bitrate Description
----- ------- -----------
MPEG-4 AVC Video 26502 kbps 1080i / 29.970 fps / 16:9 / High Profile 4.1

AUDIO:

Codec Language Bitrate Description
----- -------- ------- -----------
DTS-HD Master Audio English 4906 kbps 5.1 / 48 kHz / 4906 kbps / 24-bit (DTS Core: 5.1 / 48 kHz / 1509 kbps / 24-bit)
LPCM Audio English 2304 kbps 2.0 / 48 kHz / 2304 kbps / 24-bit

FILES:

Name Time In Length Size Total Bitrate
---- ------- ------ ---- -------------
00007.M2TS 0:00:00.000 0:05:31.364 1,472,520,192 35,550

CHAPTERS:

Number Time In Length Avg Video Rate Max 1-Sec Rate Max 1-Sec Time Max 5-Sec Rate Max 5-Sec Time Max 10Sec Rate Max 10Sec Time Avg Frame Size Max Frame Size Max Frame Time
------ ------- ------ -------------- -------------- -------------- -------------- -------------- -------------- -------------- -------------- -------------- --------------
1 0:00:00.000 0:05:31.364 26,502 kbps 39,880 kbps 00:01:08.768 35,937 kbps 00:00:22.756 35,002 kbps 00:00:20.754 110,535 bytes 383,132 bytes 00:03:26.873

STREAM DIAGNOSTICS:

File PID Type Codec Language Seconds Bitrate Bytes Packets
---- --- ---- ----- -------- -------------- -------------- ------------- -----
00007.M2TS 4113 (0x1011) 0x1B AVC 331.298 26,507 1,097,726,834 5,971,851
00007.M2TS 4352 (0x1100) 0x80 LPCM eng (English) 331.298 2,311 95,698,212 530,184
00007.M2TS 4353 (0x1101) 0x86 DTS-HD MA eng (English) 331.298 4,907 203,207,472 1,156,198[/code]
<---- END FORUMS PASTE ---->

QUICK SUMMARY:

Disc Title: THE_PRODIGY_WORLDS_ON_FIRE
Disc Size: 41,806,434,340 bytes
Protection: AACS
BD-Java: No
Playlist: 00007.MPLS
Size: 1,472,520,192 bytes
Length: 0:05:31
Total Bitrate: 35.55 Mbps
Video: MPEG-4 AVC Video / 26502 kbps / 1080i / 29.970 fps / 16:9 / High Profile 4.1
Audio: English / DTS-HD Master Audio / 5.1 / 48 kHz / 4906 kbps / 24-bit (DTS Core: 5.1 / 48 kHz / 1509 kbps / 24-bit)
Audio: English / LPCM Audio / 2.0 / 48 kHz / 2304 kbps / 24-bit

********************
PLAYLIST: 00010.MPLS
********************

<--- BEGIN FORUMS PASTE --->
[code]Total Video
Title Codec Length Movie Size Disc Size Bitrate Bitrate Main Audio Track Secondary Audio Track
----- ------ ------- -------------- -------------- ------- ------- ------------------ ---------------------
00010.MPLS AVC 0:05:29 1,565,048,832 41,806,434,340 37.99 28.61 DTS-HD Master 5.1 5135Kbps (48kHz/24-bit) LPCM 2.0 2304Kbps (48kHz/24-bit)[/code]
[code]DISC INFO:

Disc Title: THE_PRODIGY_WORLDS_ON_FIRE
Disc Size: 41,806,434,340 bytes
Protection: AACS
BD-Java: No
BDInfo: 0.5.6

PLAYLIST REPORT:

Name: 00010.MPLS
Length: 0:05:29 (h:m:s)
Size: 1,565,048,832 bytes
Total Bitrate: 37.99 Mbps

VIDEO:

Codec Bitrate Description
----- ------- -----------
MPEG-4 AVC Video 28611 kbps 1080i / 29.970 fps / 16:9 / High Profile 4.1

AUDIO:

Codec Language Bitrate Description
----- -------- ------- -----------
DTS-HD Master Audio English 5135 kbps 5.1 / 48 kHz / 5135 kbps / 24-bit (DTS Core: 5.1 / 48 kHz / 1509 kbps / 24-bit)
LPCM Audio English 2304 kbps 2.0 / 48 kHz / 2304 kbps / 24-bit

FILES:

Name Time In Length Size Total Bitrate
---- ------- ------ ---- -------------
00010.M2TS 0:00:00.000 0:05:29.562 1,565,048,832 37,991

CHAPTERS:

Number Time In Length Avg Video Rate Max 1-Sec Rate Max 1-Sec Time Max 5-Sec Rate Max 5-Sec Time Max 10Sec Rate Max 10Sec Time Avg Frame Size Max Frame Size Max Frame Time
------ ------- ------ -------------- -------------- -------------- -------------- -------------- -------------- -------------- -------------- -------------- --------------
1 0:00:00.000 0:05:29.562 28,611 kbps 45,925 kbps 00:00:14.714 36,912 kbps 00:00:12.345 35,160 kbps 00:00:11.277 119,332 bytes 481,310 bytes 00:00:15.515

STREAM DIAGNOSTICS:

File PID Type Codec Language Seconds Bitrate Bytes Packets
---- --- ---- ----- -------- -------------- -------------- ------------- -----
00010.M2TS 4113 (0x1011) 0x1B AVC 329.496 28,617 1,178,646,526 6,411,519
00010.M2TS 4352 (0x1100) 0x80 LPCM eng (English) 329.496 2,311 95,178,372 527,304
00010.M2TS 4353 (0x1101) 0x86 DTS-HD MA eng (English) 329.496 5,136 211,537,856 1,201,401[/code]
<---- END FORUMS PASTE ---->

QUICK SUMMARY:

Disc Title: THE_PRODIGY_WORLDS_ON_FIRE
Disc Size: 41,806,434,340 bytes
Protection: AACS
BD-Java: No
Playlist: 00010.MPLS
Size: 1,565,048,832 bytes
Length: 0:05:29
Total Bitrate: 37.99 Mbps
Video: MPEG-4 AVC Video / 28611 kbps / 1080i / 29.970 fps / 16:9 / High Profile 4.1
Audio: English / DTS-HD Master Audio / 5.1 / 48 kHz / 5135 kbps / 24-bit (DTS Core: 5.1 / 48 kHz / 1509 kbps / 24-bit)
Audio: English / LPCM Audio / 2.0 / 48 kHz / 2304 kbps / 24-bit

********************
PLAYLIST: 00001.MPLS
********************

<--- BEGIN FORUMS PASTE --->
[code]Total Video
Title Codec Length Movie Size Disc Size Bitrate Bitrate Main Audio Track Secondary Audio Track
----- ------ ------- -------------- -------------- ------- ------- ------------------ ---------------------
00001.MPLS AVC 0:05:17 1,141,825,536 41,806,434,340 28.80 19.92 DTS-HD Master 5.1 5018Kbps (48kHz/24-bit) LPCM 2.0 2304Kbps (48kHz/24-bit)[/code]
[code]DISC INFO:

Disc Title: THE_PRODIGY_WORLDS_ON_FIRE
Disc Size: 41,806,434,340 bytes
Protection: AACS
BD-Java: No
BDInfo: 0.5.6

PLAYLIST REPORT:

Name: 00001.MPLS
Length: 0:05:17 (h:m:s)
Size: 1,141,825,536 bytes
Total Bitrate: 28.80 Mbps

VIDEO:

Codec Bitrate Description
----- ------- -----------
MPEG-4 AVC Video 19923 kbps 1080i / 29.970 fps / 16:9 / High Profile 4.1

AUDIO:

Codec Language Bitrate Description
----- -------- ------- -----------
DTS-HD Master Audio English 5018 kbps 5.1 / 48 kHz / 5018 kbps / 24-bit (DTS Core: 5.1 / 48 kHz / 1509 kbps / 24-bit)
LPCM Audio English 2304 kbps 2.0 / 48 kHz / 2304 kbps / 24-bit

FILES:

Name Time In Length Size Total Bitrate
---- ------- ------ ---- -------------
00001.M2TS 0:00:00.000 0:05:17.183 1,141,825,536 28,799

CHAPTERS:

Number Time In Length Avg Video Rate Max 1-Sec Rate Max 1-Sec Time Max 5-Sec Rate Max 5-Sec Time Max 10Sec Rate Max 10Sec Time Avg Frame Size Max Frame Size Max Frame Time
------ ------- ------ -------------- -------------- -------------- -------------- -------------- -------------- -------------- -------------- -------------- --------------
1 0:00:00.000 0:05:17.183 19,923 kbps 40,318 kbps 00:03:58.071 34,111 kbps 00:04:21.427 33,050 kbps 00:04:18.891 83,094 bytes 428,171 bytes 00:03:54.767

STREAM DIAGNOSTICS:

File PID Type Codec Language Seconds Bitrate Bytes Packets
---- --- ---- ----- -------- -------------- -------------- ------------- -----
00001.M2TS 4113 (0x1011) 0x1B AVC 317.083 19,929 789,893,495 4,298,536
00001.M2TS 4352 (0x1100) 0x80 LPCM eng (English) 317.083 2,311 91,594,364 507,448
00001.M2TS 4353 (0x1101) 0x86 DTS-HD MA eng (English) 317.083 5,019 198,944,308 1,130,359[/code]
<---- END FORUMS PASTE ---->

QUICK SUMMARY:

Disc Title: THE_PRODIGY_WORLDS_ON_FIRE
Disc Size: 41,806,434,340 bytes
Protection: AACS
BD-Java: No
Playlist: 00001.MPLS
Size: 1,141,825,536 bytes
Length: 0:05:17
Total Bitrate: 28.80 Mbps
Video: MPEG-4 AVC Video / 19923 kbps / 1080i / 29.970 fps / 16:9 / High Profile 4.1
Audio: English / DTS-HD Master Audio / 5.1 / 48 kHz / 5018 kbps / 24-bit (DTS Core: 5.1 / 48 kHz / 1509 kbps / 24-bit)
Audio: English / LPCM Audio / 2.0 / 48 kHz / 2304 kbps / 24-bit

********************
PLAYLIST: 00030.MPLS
********************

<--- BEGIN FORUMS PASTE --->
[code]Total Video
Title Codec Length Movie Size Disc Size Bitrate Bitrate Main Audio Track Secondary Audio Track
----- ------ ------- -------------- -------------- ------- ------- ------------------ ---------------------
00030.MPLS AVC 0:04:31 621,637,632 41,806,434,340 18.29 13.92 LPCM 2.0 1536Kbps (48kHz/16-bit) LPCM 2.0 1536Kbps (48kHz/16-bit)[/code]
[code]DISC INFO:

Disc Title: THE_PRODIGY_WORLDS_ON_FIRE
Disc Size: 41,806,434,340 bytes
Protection: AACS
BD-Java: No
BDInfo: 0.5.6

PLAYLIST REPORT:

Name: 00030.MPLS
Length: 0:04:31 (h:m:s)
Size: 621,637,632 bytes
Total Bitrate: 18.29 Mbps

VIDEO:

Codec Bitrate Description
----- ------- -----------
MPEG-4 AVC Video 13917 kbps 1080i / 29.970 fps / 16:9 / High Profile 4.1

AUDIO:

Codec Language Bitrate Description
----- -------- ------- -----------
LPCM Audio English 1536 kbps 2.0 / 48 kHz / 1536 kbps / 16-bit
LPCM Audio English 1536 kbps 2.0 / 48 kHz / 1536 kbps / 16-bit

FILES:

Name Time In Length Size Total Bitrate
---- ------- ------ ---- -------------
00020.M2TS 0:00:00.000 0:04:31.938 621,637,632 18,288

CHAPTERS:

Number Time In Length Avg Video Rate Max 1-Sec Rate Max 1-Sec Time Max 5-Sec Rate Max 5-Sec Time Max 10Sec Rate Max 10Sec Time Avg Frame Size Max Frame Size Max Frame Time
------ ------- ------ -------------- -------------- -------------- -------------- -------------- -------------- -------------- -------------- -------------- --------------
1 0:00:00.000 0:04:31.938 13,917 kbps 46,889 kbps 00:04:30.903 33,704 kbps 00:04:26.899 29,130 kbps 00:04:21.894 58,047 bytes 512,768 bytes 00:04:01.841

STREAM DIAGNOSTICS:

File PID Type Codec Language Seconds Bitrate Bytes Packets
---- --- ---- ----- -------- -------------- -------------- ------------- -----
00020.M2TS 4113 (0x1011) 0x1B AVC 271.872 13,921 473,079,509 2,575,888
00020.M2TS 4352 (0x1100) 0x80 LPCM eng (English) 271.872 1,543 52,430,032 326,328
00020.M2TS 4353 (0x1101) 0x80 LPCM eng (English) 271.872 1,543 52,430,032 326,328[/code]
<---- END FORUMS PASTE ---->

QUICK SUMMARY:

Disc Title: THE_PRODIGY_WORLDS_ON_FIRE
Disc Size: 41,806,434,340 bytes
Protection: AACS
BD-Java: No
Playlist: 00030.MPLS
Size: 621,637,632 bytes
Length: 0:04:31
Total Bitrate: 18.29 Mbps
Video: MPEG-4 AVC Video / 13917 kbps / 1080i / 29.970 fps / 16:9 / High Profile 4.1
Audio: English / LPCM Audio / 2.0 / 48 kHz / 1536 kbps / 16-bit
Audio: English / LPCM Audio / 2.0 / 48 kHz / 1536 kbps / 16-bit

********************
PLAYLIST: 00028.MPLS
********************

<--- BEGIN FORUMS PASTE --->
[code]Total Video
Title Codec Length Movie Size Disc Size Bitrate Bitrate Main Audio Track Secondary Audio Track
----- ------ ------- -------------- -------------- ------- ------- ------------------ ---------------------
00028.MPLS AVC 0:04:31 620,507,136 41,806,434,340 18.26 13.89 LPCM 2.0 1536Kbps (48kHz/16-bit) LPCM 2.0 1536Kbps (48kHz/16-bit)[/code]
[code]DISC INFO:

Disc Title: THE_PRODIGY_WORLDS_ON_FIRE
Disc Size: 41,806,434,340 bytes
Protection: AACS
BD-Java: No
BDInfo: 0.5.6

PLAYLIST REPORT:

Name: 00028.MPLS
Length: 0:04:31 (h:m:s)
Size: 620,507,136 bytes
Total Bitrate: 18.26 Mbps

VIDEO:

Codec Bitrate Description
----- ------- -----------
MPEG-4 AVC Video 13888 kbps 1080i / 29.970 fps / 16:9 / High Profile 4.1

AUDIO:

Codec Language Bitrate Description
----- -------- ------- -----------
LPCM Audio English 1536 kbps 2.0 / 48 kHz / 1536 kbps / 16-bit
LPCM Audio English 1536 kbps 2.0 / 48 kHz / 1536 kbps / 16-bit

FILES:

Name Time In Length Size Total Bitrate
---- ------- ------ ---- -------------
00019.M2TS 0:00:00.000 0:04:31.904 620,507,136 18,257

CHAPTERS:

Number Time In Length Avg Video Rate Max 1-Sec Rate Max 1-Sec Time Max 5-Sec Rate Max 5-Sec Time Max 10Sec Rate Max 10Sec Time Avg Frame Size Max Frame Size Max Frame Time
------ ------- ------ -------------- -------------- -------------- -------------- -------------- -------------- -------------- -------------- -------------- --------------
1 0:00:00.000 0:04:31.904 13,888 kbps 37,432 kbps 00:04:30.870 22,257 kbps 00:00:00.100 18,076 kbps 00:00:00.567 57,925 bytes 380,136 bytes 00:02:46.733

STREAM DIAGNOSTICS:

File PID Type Codec Language Seconds Bitrate Bytes Packets
---- --- ---- ----- -------- -------------- -------------- ------------- -----
00019.M2TS 4113 (0x1011) 0x1B AVC 271.838 13,891 472,028,391 2,570,118
00019.M2TS 4352 (0x1100) 0x80 LPCM eng (English) 271.838 1,543 52,423,284 326,286
00019.M2TS 4353 (0x1101) 0x80 LPCM eng (English) 271.838 1,543 52,423,284 326,286[/code]
<---- END FORUMS PASTE ---->

QUICK SUMMARY:

Disc Title: THE_PRODIGY_WORLDS_ON_FIRE
Disc Size: 41,806,434,340 bytes
Protection: AACS
BD-Java: No
Playlist: 00028.MPLS
Size: 620,507,136 bytes
Length: 0:04:31
Total Bitrate: 18.26 Mbps
Video: MPEG-4 AVC Video / 13888 kbps / 1080i / 29.970 fps / 16:9 / High Profile 4.1
Audio: English / LPCM Audio / 2.0 / 48 kHz / 1536 kbps / 16-bit
Audio: English / LPCM Audio / 2.0 / 48 kHz / 1536 kbps / 16-bit

********************
PLAYLIST: 00014.MPLS
********************

<--- BEGIN FORUMS PASTE --->
[code]Total Video
Title Codec Length Movie Size Disc Size Bitrate Bitrate Main Audio Track Secondary Audio Track
----- ------ ------- -------------- -------------- ------- ------- ------------------ ---------------------
00014.MPLS AVC 0:04:06 1,136,259,072 41,806,434,340 36.85 27.73 DTS-HD Master 5.1 4929Kbps (48kHz/24-bit) LPCM 2.0 2304Kbps (48kHz/24-bit)[/code]
[code]DISC INFO:

Disc Title: THE_PRODIGY_WORLDS_ON_FIRE
Disc Size: 41,806,434,340 bytes
Protection: AACS
BD-Java: No
BDInfo: 0.5.6

PLAYLIST REPORT:

Name: 00014.MPLS
Length: 0:04:06 (h:m:s)
Size: 1,136,259,072 bytes
Total Bitrate: 36.85 Mbps

VIDEO:

Codec Bitrate Description
----- ------- -----------
MPEG-4 AVC Video 27730 kbps 1080i / 29.970 fps / 16:9 / High Profile 4.1

AUDIO:

Codec Language Bitrate Description
----- -------- ------- -----------
DTS-HD Master Audio English 4929 kbps 5.1 / 48 kHz / 4929 kbps / 24-bit (DTS Core: 5.1 / 48 kHz / 1509 kbps / 24-bit)
LPCM Audio English 2304 kbps 2.0 / 48 kHz / 2304 kbps / 24-bit

FILES:

Name Time In Length Size Total Bitrate
---- ------- ------ ---- -------------
00014.M2TS 0:00:00.000 0:04:06.646 1,136,259,072 36,855

CHAPTERS:

Number Time In Length Avg Video Rate Max 1-Sec Rate Max 1-Sec Time Max 5-Sec Rate Max 5-Sec Time Max 10Sec Rate Max 10Sec Time Avg Frame Size Max Frame Size Max Frame Time
------ ------- ------ -------------- -------------- -------------- -------------- -------------- -------------- -------------- -------------- -------------- --------------
1 0:00:00.000 0:04:06.646 27,730 kbps 37,554 kbps 00:00:27.160 34,676 kbps 00:00:24.758 33,665 kbps 00:00:23.156 115,657 bytes 427,867 bytes 00:03:59.172

STREAM DIAGNOSTICS:

File PID Type Codec Language Seconds Bitrate Bytes Packets
---- --- ---- ----- -------- -------------- -------------- ------------- -----
00014.M2TS 4113 (0x1011) 0x1B AVC 246.513 27,745 854,934,286 4,650,807
00014.M2TS 4352 (0x1100) 0x80 LPCM eng (English) 246.513 2,312 71,232,520 394,640
00014.M2TS 4353 (0x1101) 0x86 DTS-HD MA eng (English) 246.513 4,932 151,971,768 864,274[/code]
<---- END FORUMS PASTE ---->

QUICK SUMMARY:

Disc Title: THE_PRODIGY_WORLDS_ON_FIRE
Disc Size: 41,806,434,340 bytes
Protection: AACS
BD-Java: No
Playlist: 00014.MPLS
Size: 1,136,259,072 bytes
Length: 0:04:06
Total Bitrate: 36.85 Mbps
Video: MPEG-4 AVC Video / 27730 kbps / 1080i / 29.970 fps / 16:9 / High Profile 4.1
Audio: English / DTS-HD Master Audio / 5.1 / 48 kHz / 4929 kbps / 24-bit (DTS Core: 5.1 / 48 kHz / 1509 kbps / 24-bit)
Audio: English / LPCM Audio / 2.0 / 48 kHz / 2304 kbps / 24-bit

********************
PLAYLIST: 00012.MPLS
********************

<--- BEGIN FORUMS PASTE --->
[code]Total Video
Title Codec Length Movie Size Disc Size Bitrate Bitrate Main Audio Track Secondary Audio Track
----- ------ ------- -------------- -------------- ------- ------- ------------------ ---------------------
00012.MPLS AVC 0:03:32 832,229,376 41,806,434,340 31.38 28.23 LPCM 2.0 1536Kbps (48kHz/16-bit)[/code]
[code]DISC INFO:

Disc Title: THE_PRODIGY_WORLDS_ON_FIRE
Disc Size: 41,806,434,340 bytes
Protection: AACS
BD-Java: No
BDInfo: 0.5.6

PLAYLIST REPORT:

Name: 00012.MPLS
Length: 0:03:32 (h:m:s)
Size: 832,229,376 bytes
Total Bitrate: 31.38 Mbps

VIDEO:

Codec Bitrate Description
----- ------- -----------
MPEG-4 AVC Video 28234 kbps 1080i / 29.970 fps / 16:9 / High Profile 4.1

AUDIO:

Codec Language Bitrate Description
----- -------- ------- -----------
LPCM Audio English 1536 kbps 2.0 / 48 kHz / 1536 kbps / 16-bit

FILES:

Name Time In Length Size Total Bitrate
---- ------- ------ ---- -------------
00012.M2TS 0:00:00.000 0:03:32.145 832,229,376 31,383

CHAPTERS:

Number Time In Length Avg Video Rate Max 1-Sec Rate Max 1-Sec Time Max 5-Sec Rate Max 5-Sec Time Max 10Sec Rate Max 10Sec Time Avg Frame Size Max Frame Size Max Frame Time
------ ------- ------ -------------- -------------- -------------- -------------- -------------- -------------- -------------- -------------- -------------- --------------
1 0:00:00.000 0:03:32.145 28,234 kbps 40,432 kbps 00:01:32.492 34,882 kbps 00:00:20.220 33,705 kbps 00:00:20.320 117,759 bytes 380,183 bytes 00:01:32.559

STREAM DIAGNOSTICS:

File PID Type Codec Language Seconds Bitrate Bytes Packets
---- --- ---- ----- -------- -------------- -------------- ------------- -----
00012.M2TS 4113 (0x1011) 0x1B AVC 212.079 28,243 748,713,339 4,072,859
00012.M2TS 4352 (0x1100) 0x80 LPCM eng (English) 212.079 1,543 40,895,772 254,538[/code]
<---- END FORUMS PASTE ---->

QUICK SUMMARY:

Disc Title: THE_PRODIGY_WORLDS_ON_FIRE
Disc Size: 41,806,434,340 bytes
Protection: AACS
BD-Java: No
Playlist: 00012.MPLS
Size: 832,229,376 bytes
Length: 0:03:32
Total Bitrate: 31.38 Mbps
Video: MPEG-4 AVC Video / 28234 kbps / 1080i / 29.970 fps / 16:9 / High Profile 4.1
Audio: English / LPCM Audio / 2.0 / 48 kHz / 1536 kbps / 16-bit

********************
PLAYLIST: 00013.MPLS
********************

<--- BEGIN FORUMS PASTE --->
[code]Total Video
Title Codec Length Movie Size Disc Size Bitrate Bitrate Main Audio Track Secondary Audio Track
----- ------ ------- -------------- -------------- ------- ------- ------------------ ---------------------
00013.MPLS AVC 0:01:49 422,246,400 41,806,434,340 30.93 27.80 LPCM 2.0 1536Kbps (48kHz/16-bit)[/code]
[code]DISC INFO:

Disc Title: THE_PRODIGY_WORLDS_ON_FIRE
Disc Size: 41,806,434,340 bytes
Protection: AACS
BD-Java: No
BDInfo: 0.5.6

PLAYLIST REPORT:

Name: 00013.MPLS
Length: 0:01:49 (h:m:s)
Size: 422,246,400 bytes
Total Bitrate: 30.93 Mbps

VIDEO:

Codec Bitrate Description
----- ------- -----------
MPEG-4 AVC Video 27800 kbps 1080i / 29.970 fps / 16:9 / High Profile 4.1

AUDIO:

Codec Language Bitrate Description
----- -------- ------- -----------
LPCM Audio English 1536 kbps 2.0 / 48 kHz / 1536 kbps / 16-bit

FILES:

Name Time In Length Size Total Bitrate
---- ------- ------ ---- -------------
00013.M2TS 0:00:00.000 0:01:49.209 422,246,400 30,931

CHAPTERS:

Number Time In Length Avg Video Rate Max 1-Sec Rate Max 1-Sec Time Max 5-Sec Rate Max 5-Sec Time Max 10Sec Rate Max 10Sec Time Avg Frame Size Max Frame Size Max Frame Time
------ ------- ------ -------------- -------------- -------------- -------------- -------------- -------------- -------------- -------------- -------------- --------------
1 0:00:00.000 0:01:49.209 27,800 kbps 37,935 kbps 00:00:49.582 33,885 kbps 00:00:47.614 33,684 kbps 00:00:47.080 115,951 bytes 444,303 bytes 00:00:55.955

STREAM DIAGNOSTICS:

File PID Type Codec Language Seconds Bitrate Bytes Packets
---- --- ---- ----- -------- -------------- -------------- ------------- -----
00013.M2TS 4113 (0x1011) 0x1B AVC 109.109 27,826 379,507,664 2,064,469
00013.M2TS 4352 (0x1100) 0x80 LPCM eng (English) 109.109 1,544 21,055,688 131,052[/code]
<---- END FORUMS PASTE ---->

QUICK SUMMARY:

Disc Title: THE_PRODIGY_WORLDS_ON_FIRE
Disc Size: 41,806,434,340 bytes
Protection: AACS
BD-Java: No
Playlist: 00013.MPLS
Size: 422,246,400 bytes
Length: 0:01:49
Total Bitrate: 30.93 Mbps
Video: MPEG-4 AVC Video / 27800 kbps / 1080i / 29.970 fps / 16:9 / High Profile 4.1
Audio: English / LPCM Audio / 2.0 / 48 kHz / 1536 kbps / 16-bit

********************
PLAYLIST: 00027.MPLS
********************

<--- BEGIN FORUMS PASTE --->
[code]Total Video
Title Codec Length Movie Size Disc Size Bitrate Bitrate Main Audio Track Secondary Audio Track
----- ------ ------- -------------- -------------- ------- ------- ------------------ ---------------------
00027.MPLS AVC 0:01:20 246,552,576 41,806,434,340 24.53 19.90 LPCM 2.0 1536Kbps (48kHz/16-bit) LPCM 2.0 1536Kbps (48kHz/16-bit)[/code]
[code]DISC INFO:

Disc Title: THE_PRODIGY_WORLDS_ON_FIRE
Disc Size: 41,806,434,340 bytes
Protection: AACS
BD-Java: No
BDInfo: 0.5.6

PLAYLIST REPORT:

Name: 00027.MPLS
Length: 0:01:20 (h:m:s)
Size: 246,552,576 bytes
Total Bitrate: 24.53 Mbps

VIDEO:

Codec Bitrate Description
----- ------- -----------
MPEG-4 AVC Video 19898 kbps 1080i / 29.970 fps / 16:9 / High Profile 4.1

AUDIO:

Codec Language Bitrate Description
----- -------- ------- -----------
LPCM Audio English 1536 kbps 2.0 / 48 kHz / 1536 kbps / 16-bit
LPCM Audio English 1536 kbps 2.0 / 48 kHz / 1536 kbps / 16-bit

FILES:

Name Time In Length Size Total Bitrate
---- ------- ------ ---- -------------
00018.M2TS 0:00:00.000 0:01:20.413 246,552,576 24,528

CHAPTERS:

Number Time In Length Avg Video Rate Max 1-Sec Rate Max 1-Sec Time Max 5-Sec Rate Max 5-Sec Time Max 10Sec Rate Max 10Sec Time Avg Frame Size Max Frame Size Max Frame Time
------ ------- ------ -------------- -------------- -------------- -------------- -------------- -------------- -------------- -------------- -------------- --------------
1 0:00:00.000 0:01:20.413 19,898 kbps 43,636 kbps 00:00:00.767 25,349 kbps 00:01:15.108 23,087 kbps 00:00:27.594 82,991 bytes 324,814 bytes 00:00:01.534

STREAM DIAGNOSTICS:

File PID Type Codec Language Seconds Bitrate Bytes Packets
---- --- ---- ----- -------- -------------- -------------- ------------- -----
00018.M2TS 4113 (0x1011) 0x1B AVC 80.280 19,931 200,008,190 1,088,413
00018.M2TS 4352 (0x1100) 0x80 LPCM eng (English) 80.280 1,545 15,504,012 96,498
00018.M2TS 4353 (0x1101) 0x80 LPCM eng (English) 80.280 1,545 15,504,012 96,498[/code]
<---- END FORUMS PASTE ---->

QUICK SUMMARY:

Disc Title: THE_PRODIGY_WORLDS_ON_FIRE
Disc Size: 41,806,434,340 bytes
Protection: AACS
BD-Java: No
Playlist: 00027.MPLS
Size: 246,552,576 bytes
Length: 0:01:20
Total Bitrate: 24.53 Mbps
Video: MPEG-4 AVC Video / 19898 kbps / 1080i / 29.970 fps / 16:9 / High Profile 4.1
Audio: English / LPCM Audio / 2.0 / 48 kHz / 1536 kbps / 16-bit
Audio: English / LPCM Audio / 2.0 / 48 kHz / 1536 kbps / 16-bit

********************
PLAYLIST: 00011.MPLS
********************

<--- BEGIN FORUMS PASTE --->
[code]Total Video
Title Codec Length Movie Size Disc Size Bitrate Bitrate Main Audio Track Secondary Audio Track
----- ------ ------- -------------- -------------- ------- ------- ------------------ ---------------------
00011.MPLS AVC 0:00:54 176,750,592 41,806,434,340 26.05 23.12 LPCM 2.0 1536Kbps (48kHz/16-bit)[/code]
[code]DISC INFO:

Disc Title: THE_PRODIGY_WORLDS_ON_FIRE
Disc Size: 41,806,434,340 bytes
Protection: AACS
BD-Java: No
BDInfo: 0.5.6

PLAYLIST REPORT:

Name: 00011.MPLS
Length: 0:00:54 (h:m:s)
Size: 176,750,592 bytes
Total Bitrate: 26.05 Mbps

VIDEO:

Codec Bitrate Description
----- ------- -----------
MPEG-4 AVC Video 23117 kbps 1080i / 29.970 fps / 16:9 / High Profile 4.1

AUDIO:

Codec Language Bitrate Description
----- -------- ------- -----------
LPCM Audio English 1536 kbps 2.0 / 48 kHz / 1536 kbps / 16-bit

FILES:

Name Time In Length Size Total Bitrate
---- ------- ------ ---- -------------
00011.M2TS 0:00:00.000 0:00:54.287 176,750,592 26,047

CHAPTERS:

Number Time In Length Avg Video Rate Max 1-Sec Rate Max 1-Sec Time Max 5-Sec Rate Max 5-Sec Time Max 10Sec Rate Max 10Sec Time Avg Frame Size Max Frame Size Max Frame Time
------ ------- ------ -------------- -------------- -------------- -------------- -------------- -------------- -------------- -------------- -------------- --------------
1 0:00:00.000 0:00:54.287 23,117 kbps 45,532 kbps 00:00:05.538 37,948 kbps 00:00:04.337 34,806 kbps 00:00:04.337 96,416 bytes 474,838 bytes 00:00:07.073

STREAM DIAGNOSTICS:

File PID Type Codec Language Seconds Bitrate Bytes Packets
---- --- ---- ----- -------- -------------- -------------- ------------- -----
00011.M2TS 4113 (0x1011) 0x1B AVC 54.187 23,159 156,868,909 853,580
00011.M2TS 4352 (0x1100) 0x80 LPCM eng (English) 54.187 1,545 10,467,112 65,148[/code]
<---- END FORUMS PASTE ---->

QUICK SUMMARY:

Disc Title: THE_PRODIGY_WORLDS_ON_FIRE
Disc Size: 41,806,434,340 bytes
Protection: AACS
BD-Java: No
Playlist: 00011.MPLS
Size: 176,750,592 bytes
Length: 0:00:54
Total Bitrate: 26.05 Mbps
Video: MPEG-4 AVC Video / 23117 kbps / 1080i / 29.970 fps / 16:9 / High Profile 4.1
Audio: English / LPCM Audio / 2.0 / 48 kHz / 1536 kbps / 16-bit


 ·  , , FAQ-
:  [ 29--2011 13:17 ]

  

.torrent

.torrent 59 KB


: 38.94 GB
(hash) : dd352cf9ed52ad16bbd2244c56a8881683e6e4ec
··
...

The Prodigy - Worlds On Fire . !

!