Скачать порно через торрент Bareback Cocktails Bareback Cocktails UnionPeer.org бесплатно онлайн HD качество

Скачать новое порно 2015, 2014 новинки через торрент UnionPeer.org

Порно торрент бесплатно ЮнионПир.орг

Если у вас наблюдаются проблемы со скриншотами, переходом по ссылками, скачиванием торрентов - проблемы в блокировщике рекламы AdBlock. #хорошегоДня!


Статистика раздачи
Размер:  1.12 GB   |    Зарегистрирован:  5 месяцев 4 дня   |    .torrent скачан:  42 раза   |   
Раздают:  1  
   
Загрузка...
 
Автор Сообщение

Galfimbul

avatar Galfimbul


Bareback Cocktails / Bareback Cocktails

Год производства: 2008 г.
Страна: Brazil
Жанр: all sex
Продолжительность: 01:37:30

Режиссер: Ken Master
Студия: DVS Men

В ролях: Alexsander Felix
Diego de la Torre
Kaique Brito
Kaique Souza
Mauricio Ferrari
Pablo Montejo
Rick Soares
Victor Bueno

Описание: Slip into something comfortable and pour yourself a tall one! Then again, you may not need it. You might just get drunk off the fire these sexy studs ignite when they fuck. Pssst... and by the way, no condoms here!

Format : AVI
Format/Info : Audio Video Interleave
File size : 1.12 GiB
Duration : 1h 37mn
Overall bit rate : 1 641 Kbps

Video
ID : 0
Format : MPEG-4 Visual
Format profile : Simple@L3
Format settings, BVOP : Yes
Format settings, QPel : No
Format settings, GMC : No warppoints
Format settings, Matrix : Default (H.263)
Codec ID : XVID
Codec ID/Hint : XviD
Duration : 1h 37mn
Bit rate : 1 500 Kbps
Width : 640 pixels
Height : 480 pixels
Display aspect ratio : 4:3
Frame rate : 29.970 fps
Color space : YUV
Chroma subsampling : 4:2:0
Bit depth : 8 bits
Scan type : Progressive
Compression mode : Lossy
Bits/(Pixel*Frame) : 0.163
Stream size : 1.02 GiB (91%)

Audio
ID : 1
Format : MPEG Audio
Format version : Version 1
Format profile : Layer 3
Mode : Joint stereo
Mode extension : MS Stereo
Codec ID : 55
Codec ID/Hint : MP3
Duration : 1h 37mn
Bit rate mode : Constant
Bit rate : 128 Kbps
Channel(s) : 2 channels
Sampling rate : 44.1 KHz
Compression mode : Lossy
Stream size : 89.1 MiB (8%)
Alignment : Aligned on interleaves
Interleave, duration : 26 ms (0.78 video frame)
Interleave, preload duration : 52 ms
Writing library : LAME3.97

Доп. информация: http://www.gayeroticvideoindex.com/V/4/33524.html

Качество видео: DVDRip
Формат видео: AVI
Видео: Overall bit rate : 1 641 Kbps
Аудио: Bit rate : 128 Kbps


Трекер:  [ 13-Мар-2017 09:30 ]

  

Скачать .torrent

Размер .torrent файла 45 KB


Размер: 1.12 GB
Хэш (hash) релиза: b2936509e76e06e67e31c10c15dac3223ca59b94

Торренты, похожие на Bareback Cocktails Bareback Cocktails скачать торрент

Форум Название Автор Размер S L Добавлен
Транссексуалы ·· [LadyboysFuckedBareback.com] Benty - Cocktail Dress Barebacking (29.01.2017г.) [2017 г., Shemale, Hardcore, Blowjob, Cumshots, HDRip, 720p] Galfimbul 607288917579 MB 2 0 1486400476

20:01

6-Фев-17

Транссексуалы ·· [LadyBoyGold.com] Ally / Smokin Cocktail Pantyhose Sex (03 April 2015) [2015 г., Ladyboy, Transsexual, Hardcore, Anal, Bareback, 720p, SiteRip] Galfimbul 1032972149985 MB 0 0 1428106299

03:11

4-Апр-15

Еще никто не оставлял запись к записи скачать торрент Bareback Cocktails Bareback Cocktails . Будь первым!

!Обратная связь