Скачать порно через торрент PJGirls.com Milada - Wet jeans UnionPeer.org бесплатно онлайн HD качество

Скачать новое порно 2015, 2014 новинки через торрент UnionPeer.org

Порно торрент бесплатно ЮнионПир.орг

Если у вас наблюдаются проблемы со скриншотами, переходом по ссылками, скачиванием торрентов - проблемы в блокировщике рекламы AdBlock. #хорошегоДня!


Статистика раздачи
Размер:  388 MB   |    Зарегистрирован:  5 месяцев 10 дней   |    .torrent скачан:  521 раз   |   
Раздают:  1  
   
Загрузка...
 
Автор Сообщение

Galfimbul

avatar Galfimbul


Milada - Wet jeans / Milada - Wet jeans Год производства:02.08.2013 г.
Страна: Europa
Жанр: Blonde , Mature pissing, fetish
Продолжительность: 00:04:25

Студия: PJGirls

В ролях: MILADA

Описание: Great set, great cunt, great milf!

Тип HD видео: 1080p
Качество видео: MPG-TBP
Формат видео: MPEG
Видео: MPEG2 Video 1920x1080 25fps 15000kbps [Video - MPEG2, Main Profile, High Level, 1920x1080, 25.000 fps, 15000.0 kbit/s
Аудио: MPEG Audio 48000Hz stereo 128kbps [spoiler=Медиаинфо]z, 2 chn, 128.0 kbit/s
Video
ID : 224 (0xE0)
Format : MPEG Video
Format version : Version 2
Format profile : Main@High
Format settings, BVOP : Yes
Format settings, Matrix : Custom
Format settings, GOP : M=3, N=12
Duration : 4mn 24s
Bit rate mode : Variable
Bit rate : 11.9 Mbps
Maximum bit rate : 15.0 Mbps
Width : 1 920 pixels
Height : 1 080 pixels
Display aspect ratio : 16:9
Frame rate : 25.000 fps
Standard : Component
Color space : YUV
Chroma subsampling : 4:2:0
Bit depth : 8 bits
Scan type : Interlaced
Scan order : Top Field First
Compression mode : Lossy
Bits/(Pixel*Frame) : 0.230
Stream size : 376 MiB (97%)
Color primaries : BT.709
Transfer characteristics : BT.709
Matrix coefficients : BT.709

Audio
ID : 192 (0xC0)
Format : MPEG Audio
Format version : Version 1
Format profile : Layer 2
Mode : Joint stereo
Duration : 4mn 24s
Bit rate mode : Constant
Bit rate : 128 Kbps
Channel(s) : 2 channels
Sampling rate : 48.0 KHz
Compression mode : Lossy
Stream size : 4.04 MiB (1%)


Трекер:  [ 13-Мар-2017 00:00 ]

  

Скачать .torrent

Размер .torrent файла 15 KB


Размер: 388 MB
Хэш (hash) релиза: b22c24552e75b8e815d48257710720d2da81e00e

Еще никто не оставлял запись к записи скачать торрент PJGirls.com Milada - Wet jeans . Будь первым!

!Обратная связь