Скачать порно через торрент Viva Ibiza жить Ibiza UnionPeer.org бесплатно онлайн HD качество

Скачать новое порно 2015, 2014 новинки через торрент UnionPeer.org

Порно торрент бесплатно ЮнионПир.орг

Если у вас наблюдаются проблемы со скриншотами, переходом по ссылками, скачиванием торрентов - проблемы в блокировщике рекламы AdBlock. #хорошегоДня!


Статистика раздачи
Размер:  1.44 GB   |    Зарегистрирован:  7 месяцев   |    .torrent скачан:  147 раз   |   
Раздают:  1   Качают:  1  
   
Загрузка...
 
Автор Сообщение

Galfimbul

avatar Galfimbul


Viva Ibiza / жить Ibiza

Год производства: 2003 г.
Страна: Spain
Жанр: all sex
Продолжительность: 01:27:06

Режиссер: Kurt Joachim Foerster
Студия: FoersterMedia

В ролях: Chrissy (fm)
David (fm)
Karim Al Wahid
Marc Spitz
Mario (fm)
Nick (fm)
Pit Appeninno
Rene Jolie
Ryan (fm)
Thony (fm)

Описание: In part two of the Viva Ibiza! series, a cast of beautiful boys comes to the finca (Spanish for resort or little estate) to enjoy the wonders Ibiza have has to offer. Sexy Boys at the Finca is filled with gorgeous young German boys on vacation at a private Ibiza resort who spend their days swimming, sunning, sucking and fucking each other to creamy loads.
After watching the boys at the finca, you'll know exactly where you'll want to spend your next vacation. Consider the series your personal postcards that say, 'Wish you were here!

Format : AVI
Format/Info : Audio Video Interleave
File size : 1.44 GiB
Duration : 1h 27mn
Overall bit rate : 2 372 Kbps
Movie name : VIVA IBIZA 2.Title1.DVDRip
Director : Unkown
Writing application : Lavf51.19.0
Original source form/Name : VIVA IBIZA 2

Video
ID : 0
Format : MPEG-4 Visual
Format profile : Simple@L3
Format settings, BVOP : No
Format settings, QPel : No
Format settings, GMC : No warppoints
Format settings, Matrix : Default (H.263)
Codec ID : XVID
Codec ID/Hint : XviD
Duration : 1h 27mn
Bit rate : 2 230 Kbps
Width : 640 pixels
Height : 480 pixels
Display aspect ratio : 4:3
Frame rate : 29.970 fps
Color space : YUV
Chroma subsampling : 4:2:0
Bit depth : 8 bits
Scan type : Progressive
Compression mode : Lossy
Bits/(Pixel*Frame) : 0.242
Stream size : 1.36 GiB (94%)
Writing library : XviD 1.1.2 (UTC 2006-11-01)

Audio
ID : 1
Format : MPEG Audio
Format version : Version 1
Format profile : Layer 3
Mode : Joint stereo
Mode extension : MS Stereo
Codec ID : 55
Codec ID/Hint : MP3
Duration : 1h 27mn
Bit rate mode : Constant
Bit rate : 128 Kbps
Channel(s) : 2 channels
Sampling rate : 48.0 KHz
Compression mode : Lossy
Stream size : 79.8 MiB (5%)
Alignment : Aligned on interleaves
Interleave, duration : 24 ms (0.72 video frame)
Interleave, preload duration : 24 ms

Доп. информация: http://www.gayeroticvideoindex.com/V/2/26632.html

Качество видео: DVDRip
Формат видео: AVI
Видео: Bit rate : 2 230 Kbps
Аудио: Bit rate : 128 Kbps


Трекер:  [ 12-Мар-2017 10:00 ]

  

Скачать .torrent

Размер .torrent файла 58 KB


Размер: 1.44 GB
Хэш (hash) релиза: 01f569098e5528e027c78f9c273129bf6df0faf7

Торренты, похожие на Viva Ibiza жить Ibiza скачать торрент

Форум Название Автор Размер S L Добавлен
Геи ·· Viva Ibiza 3 / жить Ibiza 3 (Kurt Joachim Foerster, Foerster) [2003 г., all sex, DVDRip] Galfimbul 15033692161.4 GB 0 0 1489302421

10:07

12-Мар-17

Еще никто не оставлял запись к записи скачать торрент Viva Ibiza жить Ibiza . Будь первым!

!Обратная связь