Скачать порно через торрент Viva Ibiza 3 жить Ibiza 3 UnionPeer.org бесплатно онлайн HD качество

Скачать новое порно 2015, 2014 новинки через торрент UnionPeer.org

Порно торрент бесплатно ЮнионПир.орг

Если у вас наблюдаются проблемы со скриншотами, переходом по ссылками, скачиванием торрентов - проблемы в блокировщике рекламы AdBlock. #хорошегоДня!


Статистика раздачи
Размер:  1.4 GB   |    Зарегистрирован:  5 месяцев 11 дней   |    .torrent скачан:  56 раз   |   
Раздают:  1  
   
Загрузка...
 
Автор Сообщение

Galfimbul

avatar Galfimbul


Viva Ibiza 3 / жить Ibiza 3

Год производства: 2003 г.
Страна: Spain
Жанр: all sex
Продолжительность: 01:28:43

Режиссер: Kurt Joachim Foerster
Студия: Foerster

В ролях: Chrissy (fm)
David (fm)
Karim Al Wahid
Marc Spitz
Mario (fm)
Nick (fm)
Pit Appeninno
Rene Jolie
Ryan (fm)
Thony (fm)

Описание: In Viva Ibiza! Three, this cast of Hot Young Lovers on Holiday take advantage of their beautiful island surroundings with each other. While on holiday, these hot young men find loads of time to frolic outdoors and to play indoors. Whether it's exchanging sweet blowjobs by the swimming pool, hot fucking in the garden or having a scorching threeway by the fireplace, these boys do it all and you'll enjoy every moment of their travelogue.
Viva Ibiza! Three, like it's predecessors, is a beautifully filmed, creamy sex-travaganza that will have you on the next available flight to glorious Ibiza in no time. Book it now!

Format : AVI
Format/Info : Audio Video Interleave
File size : 1.40 GiB
Duration : 1h 28mn
Overall bit rate : 2 259 Kbps
Movie name : VIVA IBIZA 3.Title2.DVDRip
Director : Unknown
Writing application : VirtualDubMod 1.5.10.2 (build 2542/release)
Writing library : VirtualDubMod build 2542/release
Original source form/Name : VIVA IBIZA 3

Video
ID : 0
Format : MPEG-4 Visual
Format profile : Simple@L3
Format settings, BVOP : No
Format settings, QPel : No
Format settings, GMC : No warppoints
Format settings, Matrix : Default (H.263)
Codec ID : XVID
Codec ID/Hint : XviD
Duration : 1h 28mn
Bit rate : 2 119 Kbps
Width : 640 pixels
Height : 480 pixels
Display aspect ratio : 4:3
Frame rate : 29.970 fps
Color space : YUV
Chroma subsampling : 4:2:0
Bit depth : 8 bits
Scan type : Progressive
Compression mode : Lossy
Bits/(Pixel*Frame) : 0.230
Stream size : 1.31 GiB (94%)
Writing library : XviD 1.1.2 (UTC 2006-11-01)

Audio
ID : 1
Format : MPEG Audio
Format version : Version 1
Format profile : Layer 3
Mode : Joint stereo
Mode extension : MS Stereo
Codec ID : 55
Codec ID/Hint : MP3
Duration : 1h 28mn
Bit rate mode : Constant
Bit rate : 128 Kbps
Channel(s) : 2 channels
Sampling rate : 48.0 KHz
Compression mode : Lossy
Stream size : 81.2 MiB (6%)
Alignment : Split accross interleaves
Interleave, duration : 33 ms (1.00 video frame)
Interleave, preload duration : 500 ms

Доп. информация: http://www.gayeroticvideoindex.com/V/3/26633.html

Качество видео: DVDRip
Формат видео: AVI
Видео: Bit rate : 2 119 Kbps
Аудио: Sampling rate : 48.0 KHz


Трекер:  [ 12-Мар-2017 10:00 ]

  

Скачать .torrent

Размер .torrent файла 56 KB


Размер: 1.4 GB
Хэш (hash) релиза: 476becd802a599af715409587a2ee9031453dea3

Еще никто не оставлял запись к записи скачать торрент Viva Ibiza 3 жить Ibiza 3 . Будь первым!

!Обратная связь