Скачать через торрент музыку Рыцарь кубков Knight of Cups бесплатно без регистрации torrent

Если у вас наблюдаются проблемы со скриншотами, переходом по ссылками, скачиванием торрентов - проблемы в блокировщике рекламы AdBlock. #хорошегоДня!


Статистика раздачи
Размер:  315 MB   |    Зарегистрирован:  8 месяцев   |    .torrent скачан:  14 раз   |   
Раздают:  1  
   
Загрузка...
 
Автор Сообщение

Galfimbul

avatar Galfimbul


Рыцарь кубков / Knight of Cups

Жанр: Soundtrack
Композитор: Hanan Townshend
Год выпуска диска: 2016
Страна-производитель диска: EU
Издатель (лейбл): Milan Records
Номер по каталогу: 399 805-2
Аудиокодек: FLAC (*.flac)
Тип рипа: tracks+.cue
Битрейт аудио: lossless
Продолжительность: 1:04:17.387
Источник: собственный рип
Наличие сканов в содержимом раздачи: нет
Треклист:
01. Ralph Vaughan Williams - Fantasy On a Theme of Thomas Tallis [3:49]
02. Wojciech Kilar - Exodus (Excerpt) [6:20]
03. Hanan Townshend - Water Theme No. 1 [3:43]
04. Edvard Grieg - The Death of Ase from Peer Gynt Suite No. 1, Op. 46 (Excerpt) [4:43]
05. Hanan Townshend - Spirals [3:55]
06. Hanan Townshend - The Pilgrim [2:10]
07. Hanan Townshend - Distress [2:13]
08. Edvard Grieg - Solveig's Song from Peer Gynt Suite No. 2, Op. 55 [5:36]
09. Hanan Townshend - Water Theme No. 2 [1:58]
10. Hanan Townshend - Thomas Tallis Theme [1:56]
11. Claude Debussy - 6 Epigraphes Antiques: Pour L'Egyptienne (Excerpt) [1:49]
12. Hanan Townshend - Exodus (Wojciech Kilar) [2:04]
13. Hanan Townshend - Fortune [3:44]
14. Burial - Ashtray Wasp [11:46]
15. Hanan Townshend - Water Theme No. 3 [1:56]
16. Nahid Akhtar - Dilbar Dilbara Mera [6:35]
Exact Audio Copy V1.3 from 2. September 2016

Отчёт EAC об извлечении, выполненном 11. марта 2017, 16:03

Hanan Townshend / Knight of Cups Original Motion Picture Soundtrack

Дисковод: HL-DT-STDVDRAM GH24NS90 Adapter: 1 ID: 0

Режим чтения : ДостоверностьИспользование точного потока : ДаОтключение кэша аудио : ДаИспользование указателей C2 : Нет

Коррекция смещения при чтении : 6Способность читать области Lead-in и Lead-out : НетЗаполнение пропущенных сэмплов тишиной : ДаУдаление блоков с тишиной в начале и конце : НетПри вычислениях CRC использовались нулевые сэмплы : ДаИнтерфейс : Встроенный Win32-интерфейс для Win NT/2000Обработка зазоров : Добавлено к предыдущему треку

Выходной формат : Пользовательский кодировщикВыбранный битрейт : 1024 kBit/sКачество : ВысокийДобавление ID3-тега : НетУтилита сжатия : D:\Program Files\Exact Audio Copy\FLAC\FLAC.EXEДополнительные параметры : -V -8 -T "Genre=%genre%" -T "Artist=%artist%" -T "Title=%title%" -T "Album=%albumtitle%" -T "Date=%year%" -T "Tracknumber=%tracknr%" -T "Comment=%comment%" %source%

TOC извлечённого CD

Трек | Старт | Длительность | Начальный сектор | Конечный сектор --------------------------------------------------------------------- 1 | 0:00.00 | 3:48.48 | 0 | 17147 2 | 3:48.48 | 6:19.50 | 17148 | 45622 3 | 10:08.23 | 3:42.47 | 45623 | 62319 4 | 13:50.70 | 4:43.18 | 62320 | 83562 5 | 18:34.13 | 3:55.28 | 83563 | 101215 6 | 22:29.41 | 2:10.13 | 101216 | 110978 7 | 24:39.54 | 2:12.51 | 110979 | 120929 8 | 26:52.30 | 5:36.27 | 120930 | 146156 9 | 32:28.57 | 1:58.26 | 146157 | 155032 10 | 34:27.08 | 1:56.21 | 155033 | 163753 11 | 36:23.29 | 1:49.17 | 163754 | 171945 12 | 38:12.46 | 2:03.63 | 171946 | 181233 13 | 40:16.34 | 3:44.02 | 181234 | 198035 14 | 44:00.36 | 11:46.16 | 198036 | 251001 15 | 55:46.52 | 1:55.66 | 251002 | 259692 16 | 57:42.43 | 6:34.61 | 259693 | 289303

Трек 1

Имя файла D:\Music\Soundtracks\Knight of Cups Original Motion Picture Soundtrack (2016)\01 Ralph Vaughan Williams - Fantasy On a Theme of Thomas Tallis.wav

Длина предзазора 0:00:02.00

Пиковый уровень 97.6 % Скорость извлечения 4.1 X Качество трека 100.0 % CRC теста 024C197A CRC копии 024C197A Копирование... OK

Трек 2

Имя файла D:\Music\Soundtracks\Knight of Cups Original Motion Picture Soundtrack (2016)\02 Wojciech Kilar - Exodus (Excerpt).wav

Пиковый уровень 97.6 % Скорость извлечения 4.9 X Качество трека 100.0 % CRC теста FFA80057 CRC копии FFA80057 Копирование... OK

Трек 3

Имя файла D:\Music\Soundtracks\Knight of Cups Original Motion Picture Soundtrack (2016)\03 Hanan Townshend - Water Theme No. 1.wav

Пиковый уровень 97.6 % Скорость извлечения 5.1 X Качество трека 100.0 % CRC теста FFFD179F CRC копии FFFD179F Копирование... OK

Трек 4

Имя файла D:\Music\Soundtracks\Knight of Cups Original Motion Picture Soundtrack (2016)\04 Edvard Grieg - The Death of Ase from Peer Gynt Suite No. 1, Op. 46 (Excerpt).wav

Пиковый уровень 97.6 % Скорость извлечения 5.8 X Качество трека 100.0 % CRC теста 251FB4CC CRC копии 251FB4CC Копирование... OK

Трек 5

Имя файла D:\Music\Soundtracks\Knight of Cups Original Motion Picture Soundtrack (2016)\05 Hanan Townshend - Spirals.wav

Пиковый уровень 92.2 % Скорость извлечения 5.2 X Качество трека 99.9 % CRC теста F46659F6 CRC копии F46659F6 Копирование... OK

Трек 6

Имя файла D:\Music\Soundtracks\Knight of Cups Original Motion Picture Soundtrack (2016)\06 Hanan Townshend - The Pilgrim.wav

Пиковый уровень 82.1 % Скорость извлечения 5.5 X Качество трека 100.0 % CRC теста 49337249 CRC копии 49337249 Копирование... OK

Трек 7

Имя файла D:\Music\Soundtracks\Knight of Cups Original Motion Picture Soundtrack (2016)\07 Hanan Townshend - Distress.wav

Пиковый уровень 97.6 % Скорость извлечения 1.4 X Качество трека 100.0 % CRC теста 97E6BFD5 CRC копии 97E6BFD5 Копирование... OK

Трек 8

Имя файла D:\Music\Soundtracks\Knight of Cups Original Motion Picture Soundtrack (2016)\08 Edvard Grieg - Solveig's Song from Peer Gynt Suite No. 2, Op. 55.wav

Пиковый уровень 97.6 % Скорость извлечения 1.7 X Качество трека 100.0 % CRC теста 6264E937 CRC копии 6264E937 Копирование... OK

Трек 9

Имя файла D:\Music\Soundtracks\Knight of Cups Original Motion Picture Soundtrack (2016)\09 Hanan Townshend - Water Theme No. 2.wav

Пиковый уровень 80.4 % Скорость извлечения 1.5 X Качество трека 100.0 % CRC теста 464FB588 CRC копии 464FB588 Копирование... OK

Трек 10

Имя файла D:\Music\Soundtracks\Knight of Cups Original Motion Picture Soundtrack (2016)\10 Hanan Townshend - Thomas Tallis Theme.wav

Пиковый уровень 97.6 % Скорость извлечения 1.5 X Качество трека 100.0 % CRC теста 3F19DEC3 CRC копии 3F19DEC3 Копирование... OK

Трек 11

Имя файла D:\Music\Soundtracks\Knight of Cups Original Motion Picture Soundtrack (2016)\11 Claude Debussy - 6 Epigraphes Antiques- Pour L'Egyptienne (Excerpt).wav

Пиковый уровень 97.6 % Скорость извлечения 1.2 X Качество трека 99.9 % CRC теста A5678725 CRC копии A5678725 Копирование... OK

Трек 12

Имя файла D:\Music\Soundtracks\Knight of Cups Original Motion Picture Soundtrack (2016)\12 Hanan Townshend - Exodus (Wojciech Kilar).wav

Пиковый уровень 97.6 % Скорость извлечения 1.3 X Качество трека 99.9 % CRC теста A7C60A50 CRC копии A7C60A50 Копирование... OK

Трек 13

Имя файла D:\Music\Soundtracks\Knight of Cups Original Motion Picture Soundtrack (2016)\13 Hanan Townshend - Fortune.wav

Пиковый уровень 97.6 % Скорость извлечения 1.8 X Качество трека 100.0 % CRC теста 3E0B484C CRC копии 3E0B484C Копирование... OK

Трек 14

Имя файла D:\Music\Soundtracks\Knight of Cups Original Motion Picture Soundtrack (2016)\14 Burial - Ashtray Wasp.wav

Пиковый уровень 97.6 % Скорость извлечения 2.2 X Качество трека 100.0 % CRC теста ADF84C3C CRC копии ADF84C3C Копирование... OK

Трек 15

Имя файла D:\Music\Soundtracks\Knight of Cups Original Motion Picture Soundtrack (2016)\15 Hanan Townshend - Water Theme No. 3.wav

Пиковый уровень 97.6 % Скорость извлечения 1.4 X Качество трека 99.9 % CRC теста 6D1CED72 CRC копии 6D1CED72 Копирование... OK

Трек 16

Имя файла D:\Music\Soundtracks\Knight of Cups Original Motion Picture Soundtrack (2016)\16 Nahid Akhtar - Dilbar Dilbara Mera.wav

Пиковый уровень 84.4 % Скорость извлечения 2.2 X Качество трека 100.0 % CRC теста 01BCDB13 CRC копии 01BCDB13 Копирование... OK

Ошибок не произошло

Конец отчёта

==== Контрольная сумма отчёта 81DA81876AEAD13D1D0763C42858504FA96122F87E17265C6D7E1AB8CB1A9CCD ====
REM GENRE SoundtrackREM DATE 2016REM DISCID C90F1110REM COMMENT "ExactAudioCopy v1.3"CATALOG 0731383677021PERFORMER "Hanan Townshend"TITLE "Knight of Cups Original Motion Picture Soundtrack"REM COMPOSER ""FILE "01 Ralph Vaughan Williams - Fantasy On a Theme of Thomas Tallis.wav" WAVE TRACK 01 AUDIO TITLE "Fantasy On a Theme of Thomas Tallis" PERFORMER "Ralph Vaughan Williams" REM COMPOSER "" ISRC US5941406052 INDEX 01 00:00:00FILE "02 Wojciech Kilar - Exodus (Excerpt).wav" WAVE TRACK 02 AUDIO TITLE "Exodus (Excerpt)" PERFORMER "Wojciech Kilar" REM COMPOSER "" ISRC US5941406053 INDEX 01 00:00:00FILE "03 Hanan Townshend - Water Theme No. 1.wav" WAVE TRACK 03 AUDIO TITLE "Water Theme No. 1" PERFORMER "Hanan Townshend" REM COMPOSER "" ISRC US5941406054 INDEX 01 00:00:00FILE "04 Edvard Grieg - The Death of Ase from Peer Gynt Suite No. 1, Op. 46 (Excerpt).wav" WAVE TRACK 04 AUDIO TITLE "The Death of Ase from Peer Gynt Suite No. 1, Op. 46 (Excerpt)" PERFORMER "Edvard Grieg" REM COMPOSER "" ISRC US5941406055 INDEX 01 00:00:00FILE "05 Hanan Townshend - Spirals.wav" WAVE TRACK 05 AUDIO TITLE "Spirals" PERFORMER "Hanan Townshend" REM COMPOSER "" ISRC US5941406056 INDEX 01 00:00:00FILE "06 Hanan Townshend - The Pilgrim.wav" WAVE TRACK 06 AUDIO TITLE "The Pilgrim" PERFORMER "Hanan Townshend" REM COMPOSER "" ISRC US5941406057 INDEX 01 00:00:00FILE "07 Hanan Townshend - Distress.wav" WAVE TRACK 07 AUDIO TITLE "Distress" PERFORMER "Hanan Townshend" REM COMPOSER "" ISRC US5941406058 INDEX 01 00:00:00FILE "08 Edvard Grieg - Solveig's Song from Peer Gynt Suite No. 2, Op. 55.wav" WAVE TRACK 08 AUDIO TITLE "Solveig's Song from Peer Gynt Suite No. 2, Op. 55" PERFORMER "Edvard Grieg" REM COMPOSER "" ISRC US5941406059 INDEX 01 00:00:00FILE "09 Hanan Townshend - Water Theme No. 2.wav" WAVE TRACK 09 AUDIO TITLE "Water Theme No. 2" PERFORMER "Hanan Townshend" REM COMPOSER "" ISRC US5941406059 INDEX 01 00:00:00FILE "10 Hanan Townshend - Thomas Tallis Theme.wav" WAVE TRACK 10 AUDIO TITLE "Thomas Tallis Theme" PERFORMER "Hanan Townshend" REM COMPOSER "" ISRC US5941406060 INDEX 01 00:00:00FILE "11 Claude Debussy - 6 Epigraphes Antiques- Pour L'Egyptienne (Excerpt).wav" WAVE TRACK 11 AUDIO TITLE "6 Epigraphes Antiques: Pour L'Egyptienne (Excerpt)" PERFORMER "Claude Debussy" REM COMPOSER "" ISRC US5941406061 INDEX 01 00:00:00FILE "12 Hanan Townshend - Exodus (Wojciech Kilar).wav" WAVE TRACK 12 AUDIO TITLE "Exodus (Wojciech Kilar)" PERFORMER "Hanan Townshend" REM COMPOSER "" ISRC US5941406062 INDEX 01 00:00:00FILE "13 Hanan Townshend - Fortune.wav" WAVE TRACK 13 AUDIO TITLE "Fortune" PERFORMER "Hanan Townshend" REM COMPOSER "" ISRC US5941406063 INDEX 01 00:00:00FILE "14 Burial - Ashtray Wasp.wav" WAVE TRACK 14 AUDIO TITLE "Ashtray Wasp" PERFORMER "Burial" REM COMPOSER "" ISRC US5941406064 INDEX 01 00:00:00FILE "15 Hanan Townshend - Water Theme No. 3.wav" WAVE TRACK 15 AUDIO TITLE "Water Theme No. 3" PERFORMER "Hanan Townshend" REM COMPOSER "" ISRC US5941406066 INDEX 01 00:00:00FILE "16 Nahid Akhtar - Dilbar Dilbara Mera.wav" WAVE TRACK 16 AUDIO TITLE "Dilbar Dilbara Mera" PERFORMER "Nahid Akhtar" REM COMPOSER "" ISRC QMBZ91337654 INDEX 01 00:00:00


Трекер:  [ 11-Мар-2017 17:30 ]

  

Скачать .torrent

Размер .torrent файла 14 KB


Размер: 315 MB
Хэш (hash) релиза: 3306189a0e321d58f79f6837f0a5a86a0beceac8

Торренты, похожие на Рыцарь кубков Knight of Cups скачать торрент

Форум Название Автор Размер S L Добавлен
Саундтреки к фильмам и мультфильмам (mp3) ·· [Soundtrack / Unofficial] Рыцарь кубков / Knight Of Cups (VA) - 2015, MP3, 320 kbps Galfimbul 770983989735 MB 0 0 1449744198

13:43

10-Дек-15

Саундтреки к фильмам и мультфильмам (mp3) ·· (Score) Knight of Cups / Рыцарь кубков (Hanan Townshend) - 2016, mp3 (tracks) 320 kbps Galfimbul 156206236149 MB 0 0 1458332496

23:21

18-Мар-16

Еще никто не оставлял запись к записи скачать торрент Рыцарь кубков Knight of Cups . Будь первым!

!Обратная связь